1 сезон

3 сезон

iTunes

1

iTunes

DUB Netflix

iTunes

13

1 сезон

RePack

30

Deluxe

pack

Легкие деньги

ВАЖНО

ИГРА 18+

pack

RePack

MK11

RePack

jed

RePack

fifa19

RePack

RDR2

RePack

NEED FOR SPEED™ PAYBACK

4 сезон

9 сезон

Бесстыжие 9 сезон

Все сериалы

все сериалы на PB.wtf

RePack

FAR CRY 5

Anonymous, добрый вечер, мы не успеваем до 1 числа собрать деньги на оплату серверов, помогите нам пожалуйста в это трудное время. В качестве благодарности мы отключим Вам всю рекламу на сайте (укажите свой ник в строку Ваше имя)!

×
  
Magnet ссылка

Обещание / The Promise (Терри Джордж) [2016 г., Драма, история, HDRip, Дубляж iTunes] piratbit.org

Обещание через торрент piratbit.org

Размер: 1.37 GB | Добавлен: 3 года 11 мес. назад | Торрент скачан:316 раз
Скачать  

07-07-2017 03:15 Обещание Скачать торрент  

Обещание / The Promise
Год выпуска: 2016
Страна: Испания, США
Жанр: Драма, история
Продолжительность: 02:13:07
Перевод: Дубляж iTunes
Субтитры: Отсутствую

Режиссер: Терри Джордж



В ролях: Кристиан Бэйл, Оскар Айзек, Шоре Агдашлу, Анджела Сарафян, Шарлотта Ле Бон, Джеймс Кромуэлл, Жан Рено, Том Холландер, Нуман Акар, Раде Шербеджия

Описание: 1914 год. Первая Мировая война набирает обороты. Великая Османская империя терпит крах, а Константинополь на глазах погружается в хаос. Студент-медик Микаэль Богосян в городе проездом. Он намерен развивать современную медицину в родной деревне на юге Турции, где турецкие мусульмане и армянские христиане веками мирно живут бок о бок. Фотокорреспондента Криса Майерса в Константинополь привела не столько работа, сколько пламенное чувство к армянской художнице Ане. Микаэль также очарован Аной, но соперничество между мужчинами сходит на нет, когда Империя начинает жестоко преследовать национальные меньшинства. Обещания даются и нарушаются… Но одно нельзя не сдержать - обещание выжить и поведать миру правдивую историю.

Доп. информация: Рекламы нет

Качество: HDRip
Формат: AVI
Видео кодек: XviD
Аудио кодек: AC3
Видео: XviD, 720x304 (2.35:1), 23.976 fps, 1 083 Kbps
Аудио: AC-3, 48.0 KHz, 6 ch, 384 Kbps
скриншот   скриншот   скриншот   скриншот  

General
Complete name : H:\релизы.торрентфайл\Obeshanie 2016 HDRip.avi
Format : AVI
Format/Info : Audio Video Interleave
File size : 1.37 GiB
Duration : 2h 13mn
Overall bit rate : 1 477 Kbps
Movie name : Rustorrents.pro
Writing application : VirtualDubMod 1.5.10.3 | www.virtualdub-fr.org || (build 2550/release)

Video
ID : 0
Format : MPEG-4 Visual
Format profile : Advanced Simple@L5
Format settings, BVOP : 2
Format settings, QPel : No
Format settings, GMC : No warppoints
Format settings, Matrix : Custom
Codec ID : XVID
Codec ID/Hint : XviD
Duration : 2h 13mn
Bit rate : 1 083 Kbps
Width : 720 pixels
Height : 304 pixels
Display aspect ratio : 2.35:1
Frame rate : 23.976 fps
Color space : YUV
Chroma subsampling : 4:2:0
Bit depth : 8 bits
Scan type : Progressive
Compression mode : Lossy
Bits/(Pixel*Frame) : 0.206
Stream size : 1.01 GiB (73%)
Writing library : XviD 1.2.1 (UTC 2008-12-04)

Audio
ID : 1
Format : AC-3
Format/Info : Audio Coding 3
Mode extension : CM (complete main)
Format settings, Endianness : Big
Codec ID : 2000
Duration : 2h 13mn
Bit rate mode : Constant
Bit rate : 384 Kbps
Channel(s) : 6 channels
Channel positions : Front: L C R, Side: L R, LFE
Sampling rate : 48.0 KHz
Bit depth : 16 bits
Compression mode : Lossy
Stream size : 366 MiB (26%)
Alignment : Split accross interleaves
Interleave, duration : 42 ms (1.00 video frame)
Interleave, preload duration : 500 ms

piratbit.org



Скачать Обещание через торрент http://i93.fastpic.ru/big/2017/0707/18/ec8c561386a834b27d69aee781b29d18.jpg Скачать фильм Обещание через торрент бесплантно в хорошем качестве Описание: 1914 год. Первая Мировая война набирает обороты. Великая Османская империя терпит крах, а Константинополь на глазах погружается в ... 10 10 6
Торрент: Зарегистрирован [2017-07-07 03:15] · скачан: 316 раз
Статус: √ проверено
Размер: 1.37 GB
Как cкачать? Как скачать Обещание через торрент | UTorrent

% Раздел Тема Автор DL S | L
# Фильмы (мультфильмы) cо спонсором показа (Новинки AVI/MKV) [ 4.96 GB ] Обещание / The Promise [2017 BDRip 720p] MVO ["Синема УС] bober100 Скачать
1 | 0
T Фильмы (мультфильмы) cо спонсором показа (Новинки AVI/MKV) [ 1.44 GB ] Обещание / The Promise [2017 HDRip] MVO ["Синема УС] bober100 Скачать
1 | 0
Фильмы (Blu-ray, BD-Remux, HDDVD) [ 34.57 GB ] Обещание / The Promise [2016 история BD Remux 1080p] bober100 Скачать
1 | 0
Фильмы без перевода [ 34.23 GB ] Обещание / The Promise [2016 история BDRemux] [Оригинал-ENG] smaster Скачать
1 | 0
Фильмы 2016 [DVDrip, WEB-DLRip, HDrip] (DUB, MVO) [ 2.12 GB ] Обещание / The Promise [2016 история BDRip] - Twi7ter Скачать
2 | 0
Фильмы 2016 [DVDrip, WEB-DLRip, HDrip] (DUB, MVO) [ 1.46 GB ] Обещание / The Promise [2016 история BDRip] - Twi7ter Скачать
1 | 0

28-11-2019 20:33  

Отключить всю рекламу на сайте

    Дорогой пользователь! Огромная просьба, поблагодарите релизера, оцените раздачу и оставьте свои комментарий, если Вы скачали Обещание через торрент бесплатно! Внесите свою лепту в развитие PiratBit!
    Комментировать посты могут только пользователи прошедшие не сложную регистрацию
    Показать сообщения:    

    Обещание через торрент
    Скачать бесплатно Обещание
    Обещание скачать торрент
    Обещание смотреть онлайн
    Cкачать фильм Обещание бесплатно
    Обещание скачать торрент в хорошем качестве
    Обещание смотреть онлайн бесплатно в хорошем качестве


    Вы не можете начинать темы
    Вы не можете отвечать на сообщения
    Вы не можете редактировать свои сообщения
    Вы не можете удалять свои сообщения
    Вы не можете голосовать в опросах
    Вы не можете прикреплять файлы к сообщениям
    Вы можете скачивать файлы