1 сезон

3 сезон

iTunes

1

iTunes

DUB Netflix

iTunes

13

1 сезон

RePack

30

Deluxe

pack

Легкие деньги

ВАЖНО

ИГРА 18+

pack

RePack

MK11

RePack

jed

RePack

fifa19

RePack

RDR2

RePack

NEED FOR SPEED™ PAYBACK

4 сезон

9 сезон

Бесстыжие 9 сезон

Все сериалы

все сериалы на PB.wtf

RePack

FAR CRY 5

Anonymous, добрый день, мы не успеваем до 1 числа собрать деньги на оплату серверов, помогите нам пожалуйста в это трудное время. В качестве благодарности мы отключим Вам всю рекламу на сайте (укажите свой ник в строку Ваше имя)!

×
  
Magnet ссылка

Затерянный город Z / The Lost City of Z (Джеймс Грэй / James Gray) [2016, боевик, драма, приключения, BDRip-AVC] Dub [Лицензия] piratbit.org

Затерянный город Z через торрент piratbit.org

Раздают: 1 [ 0 KB/s ]
Размер: 1.5 GB | Добавлен: 3 года 5 мес. назад | Торрент скачан:429 раз
Скачать  

08-07-2017 16:20 Затерянный город Z Скачать торрент  

Затерянный город Z
The Lost City of Z

«Основано на реальной, но невероятной истории»


Страна: США
Жанр: боевик, драма, приключения, биография, история

Год выпуска: 2016
Продолжительность: 02:20:41

Перевод: Профессиональный (полное дублирование) [Blu-ray RUS]
Субтитры: русские (полные)
Оригинальная аудиодорожка: нет

Режиссер: Джеймс Грэй / James Gray

В ролях: Чарли Ханнэм, Роберт Паттинсон, Сиенна Миллер, Том Холланд, Эдвард Эшли, Энгус МакФадьен, Иен МакДермид, Клайв Фрэнсис, Педро Коэльо, Мэтью Сандерлэнд, Йохан Майерс, Александр Йованович

Описание:
Эльдорадо, таинственная столица инков, загадочный Город Z... Вымысел или реальность? В 1925 году экспедиция полковника Фоссета, члена Королевского Географического общества, бесследно исчезла в джунглях Амазонии в поисках Города Z...



Релиз:

Автор рипа: stalkerok | Моя группа

Сэмпл

Качество видео: BDRip-AVC [Видеоряд локализован] [The Lost City of Z (2016) Blu-ray Disc [RUS] -BLUEBIRD]
Формат видео: MKV
Видео кодек: AVC
Аудио кодек: AC3
Видео: 1143 Кбит/сек, 984*412 (2,40:1), в 24,000 кадра/сек, AVC
Аудио: русский, 384 Кбит/сек, 48,0 КГц, 6 каналов, AC-3
Навигация по главам: есть

---[Information] [30.11.2017 19:18:46] x264 [info]: frame I:1314 Avg QP:17.96 size: 38613
---[Information] [30.11.2017 19:18:46] x264 [info]: frame P:38585 Avg QP:19.85 size: 13525
---[Information] [30.11.2017 19:18:46] x264 [info]: frame B:162687 Avg QP:21.67 size: 3893

Общее
Уникальный идентификатор : 208708109899698909516437088417528142054 (0x9D03B8480A019036AB268A7F6BE3D8E6)
Полное имя : M:\!Rips2017\The Lost City of Z\The.Lost.City.of.Z.2016.BDRip-AVC.RUS.stalkerok.new-team.mkv
Формат : Matroska
Версия формата : Version 4 / Version 2
Размер файла : 1,50 Гбайт
Продолжительность : 2 ч. 20 м.
Общий поток : 1529 Кбит/сек
Название фильма : The Lost City of Z (2016) (Rip by stalkerok)
Дата кодирования : UTC 2017-11-30 17:09:36
Программа кодирования : mkvmerge v8.6.1 ('Flying') 64bit
Библиотека кодирования : libebml v1.3.3 + libmatroska v1.4.4

Видео
Идентификатор : 1
Формат : AVC
Формат/Информация : Advanced Video Codec
Профиль формата : High@L4.1
Параметр CABAC формата : Да
Параметр ReFrames формата : 15 кадров
Идентификатор кодека : V_MPEG4/ISO/AVC
Продолжительность : 2 ч. 20 м.
Битрейт : 1143 Кбит/сек
Ширина : 984 пикселя
Высота : 412 пикселей
Соотношение сторон : 2,40:1
Режим частоты кадров : Постоянный
Частота кадров : 24,000 кадра/сек
Цветовое пространство : YUV
Субдискретизация насыщенности : 4:2:0
Битовая глубина : 8 бит
Тип развёртки : Прогрессивная
Бит/(Пиксели*Кадры) : 0.117
Размер потока : 1,12 Гбайт (75%)
Заголовок : The Lost City of Z (2016) (Rip by stalkerok)
Библиотека кодирования : x264 core 152 r2851kMod ba24899
Настройки программы : cabac=1 / ref=15 / deblock=1:-3:-2 / analyse=0x3:0x133 / me=umh / subme=11 / psy=1 / fade_compensate=0.00 / psy_rd=1.00:0.00 / mixed_ref=1 / me_range=32 / chroma_me=1 / trellis=2 / 8x8dct=1 / cqm=0 / deadzone=21,11 / fast_pskip=0 / chroma_qp_offset=-2 / threads=12 / lookahead_threads=3 / sliced_threads=0 / nr=0 / decimate=1 / interlaced=0 / bluray_compat=0 / constrained_intra=0 / bframes=15 / b_pyramid=2 / b_adapt=2 / b_bias=0 / direct=3 / weightb=1 / open_gop=0 / weightp=2 / keyint=240 / keyint_min=23 / scenecut=40 / intra_refresh=0 / rc_lookahead=60 / rc=crf / mbtree=0 / crf=19.6000 / qcomp=0.65 / qpmin=0 / qpmax=69 / qpstep=4 / vbv_maxrate=50000 / vbv_bufsize=62500 / crf_max=0.0 / nal_hrd=none / filler=0 / ip_ratio=1.40 / pb_ratio=1.30 / aq=3:0.80 / zones=189843,202586,q=35
Default : Да
Forced : Нет

Аудио
Идентификатор : 2
Формат : AC-3
Формат/Информация : Audio Coding 3
Расширение режима : CM (complete main)
Параметр Endianness формата : Big
Идентификатор кодека : A_AC3
Продолжительность : 2 ч. 20 м.
Вид битрейта : Постоянный
Битрейт : 384 Кбит/сек
Каналы : 6 каналов
Расположение каналов : Front: L C R, Side: L R, LFE
Частота : 48,0 КГц
Частота кадров : 31,250 кадров/сек (1536 spf)
Метод сжатия : С потерями
Размер потока : 386 Мбайт (25%)
Язык : Russian
Default : Да
Forced : Нет

Текст
Идентификатор : 3
Формат : UTF-8
Идентификатор кодека : S_TEXT/UTF8
Идентификатор кодека/Информация : UTF-8 Plain Text
Продолжительность : 2 ч. 10 м.
Битрейт : 80 бит/сек
Count of elements : 1554
Размер потока : 76,6 Кбайт (0%)
Язык : Russian
Default : Нет
Forced : Нет

Меню
00:00:00.000 : en:Chapter 1
00:01:34.583 : en:Chapter 2
00:15:17.000 : en:Chapter 3
00:32:49.458 : en:Chapter 4
00:49:20.416 : en:Chapter 5
01:09:27.875 : en:Chapter 6
01:30:27.583 : en:Chapter 7
01:49:27.333 : en:Chapter 8
02:05:57.458 : en:Chapter 9
скриншот   скриншот   скриншот   скриншот   скриншот   скриншот  
piratbit.org



Скачать Затерянный город Z через торрент http://i72.fastpic.ru/big/2015/0531/46/68ef8a2783b58e5344cc30bbd3f1b046.png Скачать фильм Затерянный город Z через торрент бесплантно в хорошем качестве Описание:Эльдорадо, таинственная столица инков, загадочный Город Z... Вымысел или реальность? В 1925 году экспедиция полковника Фоссета, ... 9.9 10 26
Info! Золотая раздача, скачанное не засчитывается.
Торрент: Зарегистрирован [2018-01-11 12:50] · скачан: 429 раз
Статус: √ проверено
Размер: 1.5 GB
Как cкачать? Как скачать Затерянный город Z через торрент | UTorrent

% Раздел Тема Автор DL S | L
Фильмы [HD 720p, 1080p] (Хороший звук DUB, MVO) [ 8.85 GB ] Затерянный город Z / The Lost City of Z [2016 биография история BDRip 720p] DUB [] bober100 Скачать
1 | 0
Фильмы 2016 [DVDrip, WEB-DLRip, HDrip] (DUB, MVO) [ 2.87 GB ] Затерянный город Z / The Lost City of Z [2016 BDRip-AVC] sokol_ok Скачать
1 | 0
Фильмы 2016 [DVDrip, WEB-DLRip, HDrip] (DUB, MVO) [ 754 MB ] Затерянный город Z / The Lost City of Z [2016 BDRip-AVC] sokol_ok Скачать
2 | 0
Фильмы [HD 720p, 1080p] (Хороший звук DUB, MVO) [ 15.8 GB ] Затерянный город Z / The Lost City of Z [2016 биография история BDRip 1080p] DUB [] bober100 Скачать
1 | 0
Фильмы (Blu-ray, BD-Remux, HDDVD) [ 41.45 GB ] Затерянный город Z / The Lost City of Z [2016 биография история BD Remux 1080p] DUB [] bober100 Скачать
1 | 0
Фильмы (Blu-ray, BD-Remux, HDDVD) [ 21.71 GB ] Затерянный город Z / The Lost City of Z [2016 биография история Blu-ray 1080p] [RUS Transfer] DUB [] bober100 Скачать
1 | 0
Фильмы 2016 [DVDrip, WEB-DLRip, HDrip] (DUB, MVO) [ 2.18 GB ] Затерянный город Z / The Lost City of Z [2016 BDRip] - [] Twi7ter Скачать
1 | 0

28-11-2019 20:33  

Отключить всю рекламу на сайте

11-01-2018 12:50 Затерянный город Z Скачать торрент  

Замена на рип с Blu-ray RUS. Видеоряд локализован.piratbit.org



    Дорогой пользователь! Огромная просьба, поблагодарите релизера, оцените раздачу и оставьте свои комментарий, если Вы скачали Затерянный город Z через торрент бесплатно! Внесите свою лепту в развитие PiratBit!
    Комментировать посты могут только пользователи прошедшие не сложную регистрацию
    Показать сообщения:    

    Затерянный город Z через торрент
    Скачать бесплатно Затерянный город Z
    Затерянный город Z скачать торрент
    Затерянный город Z смотреть онлайн
    Cкачать фильм Затерянный город Z бесплатно
    Затерянный город Z скачать торрент в хорошем качестве
    Затерянный город Z смотреть онлайн бесплатно в хорошем качестве


    Вы не можете начинать темы
    Вы не можете отвечать на сообщения
    Вы не можете редактировать свои сообщения
    Вы не можете удалять свои сообщения
    Вы не можете голосовать в опросах
    Вы не можете прикреплять файлы к сообщениям
    Вы можете скачивать файлы