2 сезон

iTunes

WEBRip

1

2 сезон

iTunes

1 сезон

1 сезон

RePack

30

Ultimate

ВАЖНО

ИГРА 18+

pack

RePack

MK11
pack

Легкие деньги

RePack

jed

RePack

fifa19

RePack

RDR2

RePack

NEED FOR SPEED™ PAYBACK

4 сезон

9 сезон

Бесстыжие 9 сезон

Все сериалы

все сериалы на PB.wtf

RePack

FAR CRY 5

Anonymous, доброе утро, мы не успеваем собрать деньги на оплату серверов за февраль, помогите нам пожалуйста в это трудное время. В качестве благодарности мы отключим Вам всю рекламу на сайте (укажите свой ник в строку Ваше имя)!

×
  
Magnet ссылка

Твин Пикс / Twin Peaks / Сезон: 3 / Серии 1-18 (18) (Дэвид Линч) [2017, триллер, мистика, драма, детектив, WEBRip] [Ukr DVO] piratbit.org

Твин Пикс через торрент piratbit.org

Размер: 11.06 GB | Добавлен: 3 года 5 мес. назад | Торрент скачан:16 раз
Скачать  

10-07-2017 17:39 Твин Пикс Скачать торрент  

Твин Пикс / Твін ПіксTwin Peaks Год выпуска: 2017
Страна: США
Жанр: Драма, криминал, детектив
Продолжительность: ~01:00:00
Перевод: Украинский (профессиональный, двухголосый)

Режиссёр: Дэвид Линч

В ролях: Медкен Эмик, Дэна Эшбрук, Шерил Ли, Кайл МакЛоклен, Эверет МакГилл, Кимми Робертсон, Расс Тэмблин, Рэй Уайз, Грейс Забриски, Эми Шилз

Описание: 25 лет назад жители маленького городка Твин Пикс были ошеломлены загадочным убийством королевы школы Лоры Палмер. Но история еще не закончена, события давно минувших дней дают о себе знать..
rating


Качество: WEBRip
Формат: AVI
Видео: XviD, 720x400 (16:9), 23,976 fps, ~1400 kbps
Аудио: MP3, 48 kHz, 2 ch, 128 kbps
Субтитры: отсутствуют

Релиз --

Цитата:

Роли озвучивали: Георгий Гавриленко и Алена Узлюк


Озвучивание от актеров озвучивших предыдущие сезоны на канале 1 + 1

Переведено сообществом -
General
Complete name : E:\Twin Peaks (Season 03) (2017) WEBRip [Hurtom]\Twin Peaks S03E01 (2017) WEBRip [Hurtom].avi
Format : AVI
Format/Info : Audio Video Interleave
File size : 649 MiB
Duration : 1h 0mn
Overall bit rate : 1 498 Kbps
Writing application : VirtualDubMod 1.5.10.2 (build 2540/release)
Writing library : VirtualDubMod build 2540/release

Video
ID : 0
Format : MPEG-4 Visual
Format profile : Advanced Simple@L5
Format settings, BVOP : 2
Format settings, QPel : No
Format settings, GMC : No warppoints
Format settings, Matrix : Custom
Codec ID : XVID
Codec ID/Hint : XviD
Duration : 1h 0mn
Bit rate : 1 302 Kbps
Width : 720 pixels
Height : 400 pixels
Display aspect ratio : 16:9
Frame rate : 23.976 fps
Color space : YUV
Chroma subsampling : 4:2:0
Bit depth : 8 bits
Scan type : Progressive
Compression mode : Lossy
Bits/(Pixel*Frame) : 0.189
Stream size : 564 MiB (87%)
Writing library : XviD 73

Audio
ID : 1
Format : MPEG Audio
Format version : Version 1
Format profile : Layer 3
Mode : Joint stereo
Mode extension : MS Stereo
Codec ID : 55
Codec ID/Hint : MP3
Duration : 1h 0mn
Bit rate mode : Constant
Bit rate : 128 Kbps
Channel(s) : 2 channels
Sampling rate : 48.0 KHz
Compression mode : Lossy
Stream size : 55.5 MiB (9%)
Alignment : Aligned on interleaves
Writing library : LAME3.99r
Encoding settings : -m j -V 4 -q 2 -lowpass 17 -b 128
скриншот   скриншот   скриншот  
Внимание! Раздача ведётся путём добавления новых серий; при каждом добавлении создаётся новый торрент. Чтобы начать докачку новой серии, пользователям необходимо сделать следующее:
(1) остановить скачивание,
(2) удалить старый торрент у себя из клиента (старые серии удалять не надо),
(3) скачать новый торрент и запустить его у себя в клиенте вместо старого, при этом указать клиенту путь в старую папку куда и должно происходить скачивание новых серий.

Ваш клиент при этом должен произвести хеширование (проверку) старой папки (если не производит сам - помогите ему сделать это), и будет докачивать только те серии которых у вас ещё нет. Старые серии при этом не удаляются, а продолжают раздаваться!

Eсли вы уже удалили старые серии, то предотвратить повторную закачку старых серий можно, отжав галочку в соответствующих местах при запуске нового торрента. По возможности, желательно не удалять старые серии как можно дольше чтобы релизёр не столько продолжал раздавать старые серии, а смог сконцентрироваться на новых.
piratbit.org



Скачать Твин Пикс через торрент http://i92.fastpic.ru/big/2017/0710/85/e623590fc2545d866594d9024cc7af85.jpg Скачать фильм Твин Пикс через торрент бесплантно в хорошем качестве Описание: 25 лет назад жители маленького городка Твин Пикс были ошеломлены загадочным убийством королевы школы Лоры Палмер. Но история еще ... 7.8 10 4
Торрент: Зарегистрирован [2017-09-25 18:43] · скачан: 16 раз
Статус: √ проверено
Размер: 11.06 GB
Как cкачать? Как скачать Твин Пикс через торрент | UTorrent

% Раздел Тема Автор DL S | L
Зарубежные сериалы [ 16.5 GB ] Твин Пикс / Twin Peaks / Сезон: 3 / Серии: 1-18 [2017 BDRip-AVC] MVO aleksan55 Скачать
1 | 0
Зарубежные сериалы [ 12.34 GB ] Твин Пикс / Twin Peaks / Сезон: 3 серии 1-18 [2017 WEB-DLRip] [MVO] killermax2013 Скачать
1 | 0
Зарубежные сериалы [ 11.06 GB ] Твин Пикс / Twin Peaks / Сезон 3 / Серии 1-18 из 18 [2017 WEBRip] MVO [LostFilm] bober100 Скачать
1 | 0
Зарубежные сериалы [ 88.11 GB ] Твин Пикс / Twin Peaks / Сезон: 3 / Серии 1-18 [2017 WEBRip 1080p] [MVO] killermax2013 Скачать
1 | 0
Зарубежные сериалы [ 26 GB ] Твин Пикс / Twin Peaks / Сезон: 3 / Серии 1-18 [2017 WEBRip 720p] [MVO] killermax2013 Скачать
1 | 0
Зарубежные сериалы [ 6.49 GB ] Твин Пикс / Twin Peaks / Сезон: 3 серии 1-6 [2017 WEBRip] [MVO] killermax2013 Скачать
1 | 0
Зарубежные сериалы [ 3.47 GB ] Твин Пикс / Twin Peaks / Сезон: 3 серии 1-5 [2017 WEBRip] [MVO] killermax2013 Скачать
1 | 0

28-11-2019 20:33  

Отключить всю рекламу на сайте

    Дорогой пользователь! Огромная просьба, поблагодарите релизера, оцените раздачу и оставьте свои комментарий, если Вы скачали Твин Пикс через торрент бесплатно! Внесите свою лепту в развитие PiratBit!
    Комментировать посты могут только пользователи прошедшие не сложную регистрацию
    Показать сообщения:    

    Твин Пикс через торрент
    Скачать бесплатно Твин Пикс
    Твин Пикс скачать торрент
    Твин Пикс смотреть онлайн
    Cкачать фильм Твин Пикс бесплатно
    Твин Пикс скачать торрент в хорошем качестве
    Твин Пикс смотреть онлайн бесплатно в хорошем качестве


    Вы не можете начинать темы
    Вы не можете отвечать на сообщения
    Вы не можете редактировать свои сообщения
    Вы не можете удалять свои сообщения
    Вы не можете голосовать в опросах
    Вы не можете прикреплять файлы к сообщениям
    Вы можете скачивать файлы