1 сезон

3 сезон

iTunes

1

iTunes

DUB Netflix

iTunes

13

1 сезон

RePack

30

Deluxe

pack

Легкие деньги

ВАЖНО

ИГРА 18+

pack

RePack

MK11

RePack

jed

RePack

fifa19

RePack

RDR2

RePack

NEED FOR SPEED™ PAYBACK

4 сезон

9 сезон

Бесстыжие 9 сезон

Все сериалы

все сериалы на PB.wtf

RePack

FAR CRY 5

Anonymous, доброе утро, мы не успеваем до 1 числа собрать деньги на оплату серверов, помогите нам пожалуйста в это трудное время. В качестве благодарности мы отключим Вам всю рекламу на сайте (укажите свой ник в строку Ваше имя)!

×
  
Magnet ссылка

Уна / Una (Бенедикт Эндрюс) [2016, Драма, триллер, WEB-DLRip-AVC] MVO [Лицензия / iTunes] piratbit.org

Уна через торрент piratbit.org

Размер: 1.26 GB | Добавлен: 3 года 11 мес. назад | Торрент скачан:56 раз
Скачать  

13-07-2017 06:32 Уна Скачать торрент  

Уна / Una
Год выпуска: 2016
Страна: США, Великобритания, Канада
Жанр: Драма, триллер
Продолжительность: 01:34:02
Перевод: Профессиональный многоголосый [Лицензия / iTunes]
Субтитры: отсутствуют

Режиссер: Бенедикт Эндрюс

rating

В ролях:

Руни Мара, Риз Ахмед, Бен Мендельсон, Тобайас Мензис, Тара Фитцджеральд, Наташа Литтл, Поппи Корби-Туч, Изобель Моллой, Киаран МакМенамин, Ричард Каннингэм

Описание:

15 лет назад юная Уна сбежала из дома со взрослым Рэем... Спустя годы в одном из журналов Уне попадается фотография бывшего: у него новая жизнь, новая семья и новое имя. Их внезапная встреча обнажит не только погребенные навсегда воспоминания, но и вытащит на поверхность потаенные желания, которые грозят разрушить их жизни до основания.

Качество: WEB-DLRip-AVC
Формат: MKV
Видео кодек: H.264
Аудио кодек: AC3

Видео: 1024x426 (16:9), 23.976 fps, x264 ~1534 kbps avg, 0.147 bit/pixel
Аудио#1: 48 kHz, AC3 Dolby Digital, 3/2 (L,C,R,l,r) + LFE ch, ~384.00 kbps avg | RUS (iTunes)
скриншот   скриншот   скриншот   скриншот   скриншот  

Общее
Уникальный идентификатор : 175514507181280417048433813430172708076 (0x840ADD503B2A4F64B4C40BEC119CECEC)
Полное имя : D:Una.2016.WEB-DLRip(AVC).OlLanDGroup.mkv
Формат : Matroska
Версия формата : Version 2
Размер файла : 1,26 Гбайт
Продолжительность : 1 ч. 34 м.
Общий поток : 1918 Кбит/сек
Название фильма : Una.2016 #TorpedoUK#
Дата кодирования : UTC 2017-07-09 13:19:25
Программа кодирования : mkvmerge v7.8.0 ('River Man') 32bit built on Apr 3 2015 12:11:22
Библиотека кодирования : libebml v1.3.1 + libmatroska v1.4.2

Видео
Идентификатор : 1
Формат : AVC
Формат/Информация : Advanced Video Codec
Профиль формата : High@L4.1
Параметр CABAC формата : Да
Параметр ReFrames формата : 10 кадров
Идентификатор кодека : V_MPEG4/ISO/AVC
Продолжительность : 1 ч. 34 м.
Битрейт : 1534 Кбит/сек
Ширина : 1024 пикселя
Высота : 426 пикселей
Соотношение сторон : 2,40:1
Режим частоты кадров : Постоянный
Частота кадров : 23,976 (24000/1001) кадра/сек
Цветовое пространство : YUV
Субдискретизация насыщенности : 4:2:0
Битовая глубина : 8 бит
Тип развёртки : Прогрессивная
Бит/(Пиксели*Кадры) : 0.147
Размер потока : 1006 Мбайт (78%)
Библиотека кодирования : x264 core 146 r2538 121396c
Настройки программы : cabac=1 / ref=10 / deblock=1:-3:-3 / analyse=0x3:0x133 / me=umh / subme=11 / psy=1 / psy_rd=1.00:0.07 / mixed_ref=1 / me_range=48 / chroma_me=1 / trellis=2 / 8x8dct=1 / cqm=0 / deadzone=21,11 / fast_pskip=0 / chroma_qp_offset=-3 / threads=6 / lookahead_threads=1 / sliced_threads=0 / nr=0 / decimate=0 / interlaced=0 / bluray_compat=0 / constrained_intra=0 / bframes=10 / b_pyramid=2 / b_adapt=2 / b_bias=0 / direct=3 / weightb=1 / open_gop=0 / weightp=2 / keyint=240 / keyint_min=23 / scenecut=40 / intra_refresh=0 / rc_lookahead=40 / rc=2pass / mbtree=0 / bitrate=1534 / ratetol=1.0 / qcomp=0.60 / qpmin=0 / qpmax=69 / qpstep=4 / cplxblur=20.0 / qblur=0.5 / vbv_maxrate=50000 / vbv_bufsize=62500 / nal_hrd=none / filler=0 / ip_ratio=1.40 / pb_ratio=1.30 / aq=1:1.00
Язык : English
Default : Да
Forced : Нет

Аудио
Идентификатор : 2
Формат : AC-3
Формат/Информация : Audio Coding 3
Расширение режима : CM (complete main)
Параметр Endianness формата : Big
Идентификатор кодека : A_AC3
Продолжительность : 1 ч. 34 м.
Вид битрейта : Постоянный
Битрейт : 384 Кбит/сек
Каналы : 6 каналов
Расположение каналов : Front: L C R, Side: L R, LFE
Частота : 48,0 КГц
Частота кадров : 31,250 кадров/сек (1536 spf)
Битовая глубина : 16 бит
Метод сжатия : С потерями
Размер потока : 258 Мбайт (20%)
Заголовок : Rustorrents.pro
Язык : Russian
Default : Да
Forced : Да

Меню
00:00:00.000 : en:1
00:07:51.000 : en:2
00:17:16.000 : en:3
00:26:54.000 : en:4
00:36:24.000 : en:5
00:47:19.000 : en:6
00:55:20.000 : en:7
01:05:40.000 : en:8
01:15:51.000 : en:9
01:25:35.000 : en:10

piratbit.org



Скачать Уна через торрент http://lostpix.com/img/2017-07/13/y6ou4duhi4uyt414n2ninvkjl.jpg Скачать фильм Уна через торрент бесплантно в хорошем качестве Описание: 15 лет назад юная Уна сбежала из дома со взрослым Рэем... Спустя годы в одном из журналов Уне попадается фотография бывшего: у ... 10 10 3
Торрент: Зарегистрирован [2017-07-13 06:32] · скачан: 56 раз
Статус: √ проверено
Размер: 1.26 GB
Как cкачать? Как скачать Уна через торрент | UTorrent

% Раздел Тема Автор DL S | L
Фильмы [HD 720p, 1080p] (Звук Cam, VO, DVO) [ 4.36 GB ] Титька и луна / La teta y la luna [1994 Эротика BDRip 720p ] от ExKinoRay dumbia Скачать
4 | 0
T Фильмы 2017 [DVDrip, WEB-DLRip, HDrip] (DUB, MVO) [ 1.45 GB ] Луна / Luna [2017 HDRip-AVC] [MVO] [Синема Ус] | от Mediabit Lithuania Скачать
3 | 0
Фильмы 2013 [DVDrip, WEB-DLRip, HDrip] [ 746 MB ] Луна над Турином / La luna su Torino [2013 WEB-DLRip] DVO bober100 Скачать
1 | 0
Фильмы (WEB-DL 720p, 1080p) [ 3.6 GB ] Луна над Турином / La luna su Torino [2013 WEB-DL 1080p] DVO bober100 Скачать
1 | 0
Фильмы 2013 [DVDrip, WEB-DLRip, HDrip] [ 1.46 GB ] Луна над Турином / La luna su Torino [2013 WEB-DLRip] DVO bober100 Скачать
1 | 0
Зарубежные сериалы [ 7.86 GB ] Маньяк / Maniac / Сезон: 1 / Серии: 1-10 из 10 [2018 WEB-DLRip] [MVO] killermax2013 Скачать
1 | 0
Аниме [HD 720p, 1080p] [ 14.7 GB ] Пираты "Черной Лагуны" / Black Lagoon [2006 аниме BDRip 720p Многоголосый закадровый "MC Entertainment" ] RodDog Скачать
1 | 0

28-11-2019 20:33  

Отключить всю рекламу на сайте

    Дорогой пользователь! Огромная просьба, поблагодарите релизера, оцените раздачу и оставьте свои комментарий, если Вы скачали Уна через торрент бесплатно! Внесите свою лепту в развитие PiratBit!
    Комментировать посты могут только пользователи прошедшие не сложную регистрацию
    Показать сообщения:    

    Уна через торрент
    Скачать бесплатно Уна
    Уна скачать торрент
    Уна смотреть онлайн
    Cкачать фильм Уна бесплатно
    Уна скачать торрент в хорошем качестве
    Уна смотреть онлайн бесплатно в хорошем качестве


    Вы не можете начинать темы
    Вы не можете отвечать на сообщения
    Вы не можете редактировать свои сообщения
    Вы не можете удалять свои сообщения
    Вы не можете голосовать в опросах
    Вы не можете прикреплять файлы к сообщениям
    Вы можете скачивать файлы