2 сезон

iTunes

WEBRip

1

2 сезон

iTunes

1 сезон

1 сезон

RePack

30

Новинка

ВАЖНО

ИГРА 18+

pack

RePack

MK11
pack

Легкие деньги

RePack

jed

RePack

fifa19

RePack

RDR2

RePack

NEED FOR SPEED™ PAYBACK

4 сезон

9 сезон

Бесстыжие 9 сезон

Все сериалы

все сериалы на PB.wtf

RePack

FAR CRY 5

Anonymous, доброй ночи, мы не успеваем собрать деньги на оплату серверов за февраль, помогите нам пожалуйста в это трудное время. В качестве благодарности мы отключим Вам всю рекламу на сайте (укажите свой ник в строку Ваше имя)!

×
  
Magnet ссылка

Одарённая / Обдарована / Gifted (Марк Уэбб) [2017, драма, BDRip 1080p] [Ukr DUB] [Лицензия / iTunes] piratbit.org

Одарённая через торрент piratbit.org

Размер: 5 GB | Добавлен: 3 года 7 мес. назад | Торрент скачан:44 раза
Скачать  

14-07-2017 19:29 Одарённая Скачать торрент  

Одарённая / Обдарована / Gifted
Год выхода : 2017
Жанр : драма
Страна : США
Продолжительность : 01:41:10
Перевод : Украинский (дублированный) [Лицензия / iTunes]
Субтитры: Ukrainian (iTunes), English (SDH)

Режиссер : Марк Уэбб

В главных ролях : Крис Эванс, МакКенна Грейс, Линдси Дункан, Дженни Слейт, Октавия Спенсер, Michael Kendall Kaplan, Джон М. Джексон, Гленн Пламмер, Джон Финн, Элизабет Марвел

Описание : Фрэнк Адлер живет в прибрежном городке во Флориде и воспитывает в одиночку свою необычайно одаренную племянницу Мэри. Но планы парня о спокойной школьной жизни для девочки рушатся, когда о математических способностях ребенка узнает грозная мать Фрэнка Эвелин. У бабушки свои представления о будущем внучки, и ради этого она готова даже разлучить Мэри с Фрэнком.

rating

Качество : BDRip 1080p
Формат видео : MKV
Видео : 1920x800 at 23.976 fps, MPEG-4 AVC, ~6005 kbps avg
Aудио#1: Ukrainian: 48 kHz, AC3, 3/2 (L,C,R,l,r) + LFE ch, ~384.00 kbps avg [Лицензия / iTunes]
Aудио#2: English: 48 kHz, AC3, 3/2 (L,C,R,l,r) + LFE ch, ~640.00 kbps avg

Unique ID : 216974505615561904105640409189086969141 (0xA33BC50E8E6ED6C2BC6ED2E0E870BD35)
Complete name : F:\Gifted.1080p.BDRip.Ukr.Eng.mkv
Format : Matroska
Format version : Version 4 / Version 2
File size : 5.00 GiB
Duration : 1h 41mn
Overall bit rate : 7 076 Kbps
Movie name : Gifted 1080p BDRip by sergiyko
Encoded date : UTC 2017-07-14 17:52:26
Writing application : mkvmerge v13.0.0 ('The Juggler') 64bit
Writing library : libebml v1.3.4 + libmatroska v1.4.5

Video
ID : 1
Format : AVC
Format/Info : Advanced Video Codec
Format profile : High@L4.1
Format settings, CABAC : Yes
Format settings, ReFrames : 5 frames
Codec ID : V_MPEG4/ISO/AVC
Duration : 1h 41mn
Bit rate : 5 911 Kbps
Width : 1 920 pixels
Height : 800 pixels
Display aspect ratio : 2.40:1
Frame rate mode : Constant
Frame rate : 23.976 fps
Color space : YUV
Chroma subsampling : 4:2:0
Bit depth : 8 bits
Scan type : Progressive
Bits/(Pixel*Frame) : 0.161
Stream size : 4.18 GiB (84%)
Title : Gifted 1080p BDRip
Writing library : x264 core 152 r2851 ba24899
Encoding settings : cabac=1 / ref=5 / deblock=1:-2:-2 / analyse=0x3:0x133 / me=umh / subme=10 / psy=1 / psy_rd=1.00:0.15 / mixed_ref=1 / me_range=32 / chroma_me=1 / trellis=2 / 8x8dct=1 / cqm=0 / deadzone=21,11 / fast_pskip=0 / chroma_qp_offset=-3 / threads=16 / lookahead_threads=1 / sliced_threads=0 / nr=0 / decimate=1 / interlaced=0 / bluray_compat=0 / constrained_intra=0 / bframes=3 / b_pyramid=2 / b_adapt=2 / b_bias=0 / direct=3 / weightb=1 / open_gop=0 / weightp=2 / keyint=240 / keyint_min=23 / scenecut=40 / intra_refresh=0 / rc_lookahead=60 / rc=crf / mbtree=1 / crf=19.0 / qcomp=0.60 / qpmin=0 / qpmax=69 / qpstep=4 / vbv_maxrate=61250 / vbv_bufsize=50000 / crf_max=0.0 / nal_hrd=none / filler=0 / ip_ratio=1.40 / aq=1:1.00
Language : English
Default : Yes
Forced : No

Audio #1
ID : 2
Format : AC-3
Format/Info : Audio Coding 3
Mode extension : CM (complete main)
Format settings, Endianness : Big
Codec ID : A_AC3
Duration : 1h 41mn
Bit rate mode : Constant
Bit rate : 384 Kbps
Channel(s) : 6 channels
Channel positions : Front: L C R, Side: L R, LFE
Sampling rate : 48.0 KHz
Compression mode : Lossy
Stream size : 278 MiB (5%)
Title : DUB AC3 5.1ch | iTunes
Language : Ukrainian
Default : Yes
Forced : No

Audio #2
ID : 3
Format : AC-3
Format/Info : Audio Coding 3
Mode extension : CM (complete main)
Format settings, Endianness : Big
Codec ID : A_AC3
Duration : 1h 41mn
Bit rate mode : Constant
Bit rate : 640 Kbps
Channel(s) : 6 channels
Channel positions : Front: L C R, Side: L R, LFE
Sampling rate : 48.0 KHz
Compression mode : Lossy
Stream size : 463 MiB (9%)
Title : Original AC3 5.1ch
Language : English
Default : No
Forced : No

Text #1
ID : 4
Format : PGS
Muxing mode : zlib
Codec ID : S_HDMV/PGS
Codec ID/Info : Picture based subtitle format used on BDs/HD-DVDs
Title : Full
Language : Ukrainian
Default : No
Forced : No

Text #2
ID : 5
Format : PGS
Muxing mode : zlib
Codec ID : S_HDMV/PGS
Codec ID/Info : Picture based subtitle format used on BDs/HD-DVDs
Title : SDH
Language : English
Default : No
Forced : No

Menu
00:00:00.000 : en:00:00:00.000
00:04:36.317 : en:00:04:36.317
00:07:49.302 : en:00:07:49.302
00:12:55.524 : en:00:12:55.524
00:18:50.002 : en:00:18:50.002
00:22:23.008 : en:00:22:23.008
00:29:13.084 : en:00:29:13.084
00:33:18.829 : en:00:33:18.829
00:37:56.398 : en:00:37:56.398
00:42:57.824 : en:00:42:57.824
00:45:34.356 : en:00:45:34.356
00:48:06.675 : en:00:48:06.675
00:50:58.804 : en:00:50:58.804
00:54:31.684 : en:00:54:31.684
00:59:05.958 : en:00:59:05.958
01:03:52.786 : en:01:03:52.786
01:08:44.787 : en:01:08:44.787
01:14:52.279 : en:01:14:52.279
01:19:29.346 : en:01:19:29.346
01:23:44.769 : en:01:23:44.769
01:26:54.751 : en:01:26:54.751
01:29:38.831 : en:01:29:38.831
01:32:49.271 : en:01:32:49.271
01:35:36.646 : en:01:35:36.646
скриншот   скриншот   скриншот  
piratbit.org



Скачать Одарённая через торрент http://i95.fastpic.ru/big/2017/0714/a8/810e95ee2dbc46e06085886e6d7d50a8.jpg Скачать фильм Одарённая через торрент бесплантно в хорошем качестве Описание : Фрэнк Адлер живет в прибрежном городке во Флориде и воспитывает в одиночку свою необычайно одаренную племянницу Мэри. Но планы ... 9 10 3
Info! Золотая раздача, скачанное не засчитывается.
Торрент: Зарегистрирован [2017-07-14 19:29] · скачан: 44 раз
Статус: √ проверено
Размер: 5 GB
Как cкачать? Как скачать Одарённая через торрент | UTorrent

28-11-2019 20:33  

Отключить всю рекламу на сайте

14-07-2017 19:31 Одарённая Скачать торрент  

piratbit.org



14-07-2017 20:05 Одарённая Скачать торрент  

Фильм прекрасный, а killermax2013 как всегда лучший. piratbit.org



14-07-2017 20:23 Одарённая Скачать торрент  

paranja, piratbit.org



14-07-2017 21:02 Одарённая Скачать торрент  

На русском есть ?piratbit.org



14-07-2017 21:45 Одарённая Скачать торрент  

dddeeennn писал(а):

На русском есть ?

Только с рекламой
В айтюнс за 349 р лицензия
piratbit.org



    Дорогой пользователь! Огромная просьба, поблагодарите релизера, оцените раздачу и оставьте свои комментарий, если Вы скачали Одарённая через торрент бесплатно! Внесите свою лепту в развитие PiratBit!
    Комментировать посты могут только пользователи прошедшие не сложную регистрацию
    Показать сообщения:    

    Одарённая через торрент
    Скачать бесплатно Одарённая
    Одарённая скачать торрент
    Одарённая смотреть онлайн
    Cкачать фильм Одарённая бесплатно
    Одарённая скачать торрент в хорошем качестве
    Одарённая смотреть онлайн бесплатно в хорошем качестве


    Вы не можете начинать темы
    Вы не можете отвечать на сообщения
    Вы не можете редактировать свои сообщения
    Вы не можете удалять свои сообщения
    Вы не можете голосовать в опросах
    Вы не можете прикреплять файлы к сообщениям
    Вы можете скачивать файлы