1 сезон

3 сезон

iTunes

1

iTunes

DUB Netflix

iTunes

13

1 сезон

RePack

30

Deluxe

pack

Легкие деньги

ВАЖНО

ИГРА 18+

pack

RePack

MK11

RePack

jed

RePack

fifa19

RePack

RDR2

RePack

NEED FOR SPEED™ PAYBACK

4 сезон

9 сезон

Бесстыжие 9 сезон

Все сериалы

все сериалы на PB.wtf

RePack

FAR CRY 5

Anonymous, добрый вечер, мы не успеваем до 1 числа собрать деньги на оплату серверов, помогите нам пожалуйста в это трудное время. В качестве благодарности мы отключим Вам всю рекламу на сайте (укажите свой ник в строку Ваше имя)!

×
  
Magnet ссылка

Патерсон / Paterson (Джим Джармуш) [2016, Драма, мелодрама, комедия, BDRip-AVC] DUB [Лицензия] piratbit.org

Патерсон через торрент piratbit.org

Размер: 1.85 GB | Добавлен: 3 года 11 мес. назад | Торрент скачан:258 раз
Скачать  

16-07-2017 14:06 Патерсон Скачать торрент  

Патерсон / Paterson
Год выпуска: 2016
Страна: США, Франция, Германия
Жанр: Драма, мелодрама, комедия
Продолжительность: 01:58:57
Перевод: Дубляж [Лицензия]
Субтитры: Русские, английские

Режиссер: Джим Джармуш

rating

В ролях:

Адам Драйвер, Голшифте Фарахани, Ризван Манжи, Джейден Майкл, Бэрри Шебака Хенли, Тревор Пархэм, Трой Пархэм, Брайан МакКарти

Описание:

Жизнь Патерсона — сплошная романтика: он работает водителем автобуса в городе Патерсон, штат Нью-Джерси, а в свободное время пишет стихи для любимой жены Лоры. Патерсон облачает красоту повседневности в стихи и встречает поэтов повсюду — такова магия города — родины поэтов Аллена Гинзберга и Уильяма Карлоса Уильямса. Патерсон пишет в стол и даже не мечтает публиковаться, однако одно маленькое событие меняет его планы.

Качество: BDRip-AVC
Формат: MKV
Видео кодек: H.264
Аудио кодек: AC3

Видео: 1024x552 (2.40:1), 23,976 fps, x264 ~1349 kbps avg, 0.100 bit/pixel
Аудио#1: 48 kHz, AC3 Dolby Digital, 3/2 (L,C,R,l,r) + LFE ch, ~448.00 kbps avg | RUS (Лицензия)
Аудио#2: 48 kHz, AC3 Dolby Digital, 3/2 (L,C,R,l,r) + LFE ch, ~448.00 kbps avg | ENG (Original)
скриншот   скриншот   скриншот   скриншот   скриншот  

Общее
Уникальный идентификатор : 196988095852861106986581343452684359198 (0x943286F9CBC82E599F0A6F5B8828161E)
Полное имя : D:Paterson.2016.BDRip(AVC).OlLanDGroup.mkv
Формат : Matroska
Версия формата : Version 2
Размер файла : 1,85 Гбайт
Продолжительность : 1 ч. 57 м.
Общий поток : 2246 Кбит/сек
Название фильма : Paterson.2016 #TorpedoUK#
Дата кодирования : UTC 2017-07-15 17:05:56
Программа кодирования : mkvmerge v7.8.0 ('River Man') 32bit built on Apr 3 2015 12:11:22
Библиотека кодирования : libebml v1.3.1 + libmatroska v1.4.2

Видео
Идентификатор : 1
Формат : AVC
Формат/Информация : Advanced Video Codec
Профиль формата : High@L4.1
Параметр CABAC формата : Да
Параметр ReFrames формата : 10 кадров
Идентификатор кодека : V_MPEG4/ISO/AVC
Продолжительность : 1 ч. 57 м.
Битрейт : 1349 Кбит/сек
Ширина : 1024 пикселя
Высота : 552 пикселя
Соотношение сторон : 1,85:1
Режим частоты кадров : Постоянный
Частота кадров : 23,976 (24000/1001) кадра/сек
Цветовое пространство : YUV
Субдискретизация насыщенности : 4:2:0
Битовая глубина : 8 бит
Тип развёртки : Прогрессивная
Бит/(Пиксели*Кадры) : 0.100
Размер потока : 1,08 Гбайт (58%)
Библиотека кодирования : x264 core 146 r2538 121396c
Настройки программы : cabac=1 / ref=10 / deblock=1:-3:-3 / analyse=0x3:0x133 / me=umh / subme=11 / psy=1 / psy_rd=1.00:0.07 / mixed_ref=1 / me_range=48 / chroma_me=1 / trellis=2 / 8x8dct=1 / cqm=0 / deadzone=21,11 / fast_pskip=0 / chroma_qp_offset=-3 / threads=6 / lookahead_threads=1 / sliced_threads=0 / nr=0 / decimate=0 / interlaced=0 / bluray_compat=0 / constrained_intra=0 / bframes=10 / b_pyramid=2 / b_adapt=2 / b_bias=0 / direct=3 / weightb=1 / open_gop=0 / weightp=2 / keyint=240 / keyint_min=23 / scenecut=40 / intra_refresh=0 / rc_lookahead=40 / rc=2pass / mbtree=0 / bitrate=1349 / ratetol=1.0 / qcomp=0.60 / qpmin=0 / qpmax=69 / qpstep=4 / cplxblur=20.0 / qblur=0.5 / vbv_maxrate=50000 / vbv_bufsize=62500 / nal_hrd=none / filler=0 / ip_ratio=1.40 / pb_ratio=1.30 / aq=1:1.00
Язык : English
Default : Да
Forced : Нет
Цветовой диапазон : Limited
Основные цвета : BT.709
Характеристики трансфера : BT.709
Коэффициенты матрицы : BT.709

Аудио #1
Идентификатор : 2
Формат : AC-3
Формат/Информация : Audio Coding 3
Расширение режима : CM (complete main)
Параметр Endianness формата : Big
Идентификатор кодека : A_AC3
Продолжительность : 1 ч. 57 м.
Вид битрейта : Постоянный
Битрейт : 448 Кбит/сек
Каналы : 6 каналов
Расположение каналов : Front: L C R, Side: L R, LFE
Частота : 48,0 КГц
Частота кадров : 31,250 кадров/сек (1536 spf)
Битовая глубина : 16 бит
Метод сжатия : С потерями
Размер потока : 378 Мбайт (20%)
Заголовок : License
Язык : Russian
Default : Да
Forced : Нет

Аудио #2
Идентификатор : 3
Формат : AC-3
Формат/Информация : Audio Coding 3
Расширение режима : CM (complete main)
Параметр Endianness формата : Big
Идентификатор кодека : A_AC3
Продолжительность : 1 ч. 57 м.
Вид битрейта : Постоянный
Битрейт : 448 Кбит/сек
Каналы : 6 каналов
Расположение каналов : Front: L C R, Side: L R, LFE
Частота : 48,0 КГц
Частота кадров : 31,250 кадров/сек (1536 spf)
Битовая глубина : 16 бит
Метод сжатия : С потерями
Размер потока : 378 Мбайт (20%)
Заголовок : Original
Язык : English
Default : Нет
Forced : Нет

Текст #1
Идентификатор : 4
Формат : UTF-8
Идентификатор кодека : S_TEXT/UTF8
Идентификатор кодека/Информация : UTF-8 Plain Text
Заголовок : Full
Язык : Russian
Default : Нет
Forced : Нет

Текст #2
Идентификатор : 5
Формат : UTF-8
Идентификатор кодека : S_TEXT/UTF8
Идентификатор кодека/Информация : UTF-8 Plain Text
Заголовок : SDH
Язык : English
Default : Нет
Forced : Нет

Меню
00:00:00.000 : en:Monday
00:15:38.354 : en:Tuesday
00:34:56.469 : en:Wednesday
00:45:53.125 : en:Thursday
01:07:26.584 : en:Friday
01:24:09.669 : en:Sunday
01:36:57.561 : en:Sunday
01:53:01.024 : en:End Credits

piratbit.org



Скачать Патерсон через торрент https://pic1.kartinco.top/images/11/njfdq.jpg Скачать фильм Патерсон через торрент бесплантно в хорошем качестве Описание: Жизнь Патерсона — сплошная романтика: он работает водителем автобуса в городе Патерсон, штат Нью-Джерси, а в свободное время ... 9.3 10 10
Info! Золотая раздача, скачанное не засчитывается.
Торрент: Зарегистрирован [2017-07-16 14:06] · скачан: 258 раз
Статус: √ проверено
Размер: 1.85 GB
Как cкачать? Как скачать Патерсон через торрент | UTorrent

% Раздел Тема Автор DL S | L
Документальные фильмы 3D [ 9.08 GB ] Планета динозавров: Совершенные убийцы в 3Д / Planet Dinosaur: Ultimate Killers 3D [2012 Документальный BDRip 1080p] OverUnder / Вертикальная стереопара serega768 Скачать
1 | 0
Фильмы (Blu-ray, BD-Remux, HDDVD) [ 41.28 GB ] Патерсон / Paterson [2016 BDRemux от TeamHD & NNNB] DUB + 2xAVO + Original + Sub _denis_100 Скачать
1 | 0
Фильмы 2016 [DVDrip, WEB-DLRip, HDrip] (DUB, MVO) [ 1.46 GB ] Патерсон / Paterson [2016 BDRip] - [] Twi7ter Скачать
1 | 0
Фильмы 2016 [DVDrip, WEB-DLRip, HDrip] (DUB, MVO) [ 2.05 GB ] Патерсон / Paterson [2016 HDRip] [] killermax2013 Скачать
1 | 0
BBC [ 1.78 GB ] Планета динозавров / Planet Dinosaur [серии 1-6 из 6] [2011 Документальный HDTVRip] VО Просто Скачать
1 | 0

28-11-2019 20:33  

Отключить всю рекламу на сайте

16-07-2017 18:25 Патерсон Скачать торрент  

Великолепный тонкий фильм о природе творчества. ,,Когда б вы знали из какого праха рождаются стихи,, Спокойный неторопливый рассказ очень достоверен и отлично сыгран. Адам Драйвер играет прекрасно, ненавязчиво и очень убедительно. Остальные артисты тоже очень хороши в своих ролях. Качество рипа хорошее. Спасибо за раздачу.piratbit.org



18-07-2017 16:38 Патерсон Скачать торрент  

спасибо

rimins2 писал(а):

rimins2

rimins2 писал(а):

rimins2

piratbit.org



    Дорогой пользователь! Огромная просьба, поблагодарите релизера, оцените раздачу и оставьте свои комментарий, если Вы скачали Патерсон через торрент бесплатно! Внесите свою лепту в развитие PiratBit!
    Комментировать посты могут только пользователи прошедшие не сложную регистрацию
    Показать сообщения:    

    Патерсон через торрент
    Скачать бесплатно Патерсон
    Патерсон скачать торрент
    Патерсон смотреть онлайн
    Cкачать фильм Патерсон бесплатно
    Патерсон скачать торрент в хорошем качестве
    Патерсон смотреть онлайн бесплатно в хорошем качестве


    Вы не можете начинать темы
    Вы не можете отвечать на сообщения
    Вы не можете редактировать свои сообщения
    Вы не можете удалять свои сообщения
    Вы не можете голосовать в опросах
    Вы не можете прикреплять файлы к сообщениям
    Вы можете скачивать файлы