1 сезон

3 сезон

iTunes

1

iTunes

DUB Netflix

iTunes

13

1 сезон

RePack

30

Deluxe

pack

Легкие деньги

ВАЖНО

ИГРА 18+

pack

RePack

MK11

RePack

jed

RePack

fifa19

RePack

RDR2

RePack

NEED FOR SPEED™ PAYBACK

4 сезон

9 сезон

Бесстыжие 9 сезон

Все сериалы

все сериалы на PB.wtf

RePack

FAR CRY 5

Anonymous, добрый день, мы не успеваем до 1 числа собрать деньги на оплату серверов, помогите нам пожалуйста в это трудное время. В качестве благодарности мы отключим Вам всю рекламу на сайте (укажите свой ник в строку Ваше имя)!

×
  
Magnet ссылка

Это всего лишь конец света / It's Only the End of the World / Juste la fin du monde (Ксавье Долан) [2016 г., драма, HDRip, Дубляж BD "RUS"] piratbit.org

Это всего лишь конец света через торрент piratbit.org

Размер: 2.04 GB | Добавлен: 3 года 11 мес. назад | Торрент скачан:105 раз
Скачать  

17-07-2017 18:19 Это всего лишь конец света Скачать торрент  

Это всего лишь конец света / It's Only the End of the World / Juste la fin du monde
Год выпуска: 2016
Страна: Канада, Франция / Sons of Manual, MK2 Productions, France 2 Cinéma
Жанр: драма
Продолжительность: 01:38:48
Перевод: Дубляж BD (RUS)

Режиссер: Ксавье Долан

rating

В ролях: Натали Бай, Венсан Кассель, Марион Котийяр, Леа Сейду, Гаспар Ульель, Антуан Дерошер, Уилльям Бойс Бланшетт, Саша Самар, Артур Куийяр, Эмиль Рондо

Описание: Успешный писатель Луи после 12 лет разлуки возвращается в родной дом, чтобы сообщить семье новость о своей болезни. Однако, воплотить этот план в жизнь непросто, ведь у эксцентричной родни собственные планы.

Качество: HDRip
Формат: AVI
Видео кодек: XviD
Аудио кодек: AC3
Видео: MPEG4, XviD, 720x384 (1.875), 23.976 fps, 2 500 Kbps (0.377 bit/pixel)
Аудио: AC-3, 48.0 KHz, 6 ch, 448 Kbps, CBR

Общее
Полное имя : F:\ФИЛЬМЫ\Это всего лишь конец света.2016.D.HDRip.avi
Формат : AVI
Формат/Информация : Audio Video Interleave
Профиль формата : OpenDML
Размер файла : 2,04 Гбайт
Продолжительность : 1 ч. 38 м.
Общий поток : 2960 Кбит/сек
Программа кодирования : VirtualDubMod 1.5.10.3 | www.virtualdub-fr.org || (build 2550/release)
Библиотека кодирования : VirtualDubMod build 2550/release

Видео
Идентификатор : 0
Формат : MPEG-4 Visual
Профиль формата : Advanced Simple@L5
Параметр BVOP формата : 1
Параметр QPel формата : Нет
Параметр GMC формата : Без точки перехода
Параметр матрицы формата : Default (MPEG)
Идентификатор кодека : XVID
Идентификатор кодека/Подсказка : XviD
Продолжительность : 1 ч. 38 м.
Битрейт : 2500 Кбит/сек
Ширина : 720 пикселей
Высота : 384 пикселя
Соотношение сторон : 1,85:1
Частота кадров : 23,976 (24000/1001) кадра/сек
Цветовое пространство : YUV
Субдискретизация насыщенности : 4:2:0
Битовая глубина : 8 бит
Тип развёртки : Прогрессивная
Метод сжатия : С потерями
Бит/(Пиксели*Кадры) : 0.377
Размер потока : 1,73 Гбайт (84%)
Библиотека кодирования : XviD 1.2.1 (UTC 2008-12-04)

Аудио
Идентификатор : 1
Формат : AC-3
Формат/Информация : Audio Coding 3
Параметр Endianness формата : Big
Идентификатор кодека : 2000
Продолжительность : 1 ч. 38 м.
Вид битрейта : Постоянный
Битрейт : 448 Кбит/сек
Каналы : 6 каналов
Расположение каналов : Front: L C R, Side: L R, LFE
Частота : 48,0 КГц
Частота кадров : 31,250 кадров/сек (1536 SPF)
Битовая глубина : 16 бит
Метод сжатия : С потерями
Размер потока : 317 Мбайт (15%)
Выравнивание : Разделение по промежуткам
Продолжительность промежутка : 42 мс. (1,00 видеокадр)
Время предзагрузки промежутка : 500 мс.
ServiceKind/String : Complete Main

piratbit.org



Скачать Это всего лишь конец света через торрент https://pic1.kartinco.top/images/11/4dpiv.jpg Скачать фильм Это всего лишь конец света через торрент бесплантно в хорошем качестве Описание: Успешный писатель Луи после 12 лет разлуки возвращается в родной дом, чтобы сообщить семье новость о своей болезни. Однако, ... 7 10 3
Торрент: Зарегистрирован [2017-07-17 18:19] · скачан: 105 раз
Статус: √ проверено
Размер: 2.04 GB
Как cкачать? Как скачать Это всего лишь конец света через торрент | UTorrent

28-11-2019 20:33  

Отключить всю рекламу на сайте

    Дорогой пользователь! Огромная просьба, поблагодарите релизера, оцените раздачу и оставьте свои комментарий, если Вы скачали Это всего лишь конец света через торрент бесплатно! Внесите свою лепту в развитие PiratBit!
    Комментировать посты могут только пользователи прошедшие не сложную регистрацию
    Показать сообщения:    

    Это всего лишь конец света через торрент
    Скачать бесплатно Это всего лишь конец света
    Это всего лишь конец света скачать торрент
    Это всего лишь конец света смотреть онлайн
    Cкачать фильм Это всего лишь конец света бесплатно
    Это всего лишь конец света скачать торрент в хорошем качестве
    Это всего лишь конец света смотреть онлайн бесплатно в хорошем качестве


    Вы не можете начинать темы
    Вы не можете отвечать на сообщения
    Вы не можете редактировать свои сообщения
    Вы не можете удалять свои сообщения
    Вы не можете голосовать в опросах
    Вы не можете прикреплять файлы к сообщениям
    Вы можете скачивать файлы