1 сезон

3 сезон

iTunes

1

iTunes

DUB Netflix

iTunes

13

1 сезон

RePack

30

Deluxe

pack

Легкие деньги

ВАЖНО

ИГРА 18+

pack

RePack

MK11

RePack

jed

RePack

fifa19

RePack

RDR2

RePack

NEED FOR SPEED™ PAYBACK

4 сезон

9 сезон

Бесстыжие 9 сезон

Все сериалы

все сериалы на PB.wtf

RePack

FAR CRY 5

Anonymous, добрый день, мы не успеваем до 1 числа собрать деньги на оплату серверов, помогите нам пожалуйста в это трудное время. В качестве благодарности мы отключим Вам всю рекламу на сайте (укажите свой ник в строку Ваше имя)!

×
  
Magnet ссылка

Искусственный интеллект. Доступ неограничен / I.T. (Джон Мур) [2016 г., триллер, драма, криминал, детектив, BDRip-AVC] Дубляж [iTunes] - ExKinoRay piratbit.org

Искусственный интеллект. Доступ неограничен через торрент piratbit.org

Размер: 1.61 GB | Добавлен: 3 года 11 мес. назад | Торрент скачан:431 раз
Скачать  

21-07-2017 23:13 Искусственный интеллект. Доступ неограничен Скачать торрент  

Информация о фильме
Название: Искусственный интеллект. Доступ неограничен
Оригинальное название: I.T.
Год выпуска: 2016
Жанр: Триллер, драма, криминал, детектив
Страна: США, Франция, Ирландия
Студия: 22h22, Fastnet Films, Friendly Films
Продолжительность: 01:36:00
Перевод: Дублированный | iTunes
Субтитры: Русские, английские
Режиссер: Джон Мур
В ролях: Анна Фрил, Пирс Броснан, Стефани Скотт, Микаэл Нюквист, Джеймс Фрешвилл, Клэр-Хоуп Эшити, Джейсон Бэрри, Адам Фергус, Рико Симонини

Описание: Вся жизнь Майка Ригана и его семьи построена на последних достижениях искусственного интеллекта и высоких технологий, а его «умный» дом — настоящее произведение технического искусства. Когда Майк пытается прекратить зашедшие слишком далеко отношения своего IT-специалиста Эда с юной дочерью, жизнь Ригана и его семьи оказываются под угрозой. Они попадают в ловушку созданных Риганом «умных технологий», которыми теперь управляет безумный гений Эд, вовлекая Ригана в опасную и непредсказуемую игру.

rating

Файл
Формат: MKV
Качество: BDRip-AVC
Видео: AVC, 1024х428 (2.40:1), 1574 kbps, 23,976 fps, 0,150 bpp
Аудио1: 48 kHz, AC3, 5.1, 384 Kbps | RUS |
Аудио2: 48 kHz, AC3, 5.1, 448 Kbps | ENG |

Навигация по главам: есть
General
Unique ID : 217526285806679174719549633021680335114 (0xA3A609EBB171D978855AFA505FB0B90A)
Complete name : D:\I.T.2016.BDRip.AVC.ExKinoRay.mkv
Format : Matroska
Format version : Version 2
File size : 1.61 GiB
Duration : 1 h 36 min
Overall bit rate : 2 401 kb/s
Movie name : Искусственный интеллект. Доступ неограничен (2016) from ExKinoRay
Encoded date : UTC 2017-07-21 21:22:18
Writing application : mkvmerge v5.6.0 ('Kenya Kane') built on May 27 2012 16:44:04
Writing library : libebml v1.2.3 + libmatroska v1.3.0

Video
ID : 1
Format : AVC
Format/Info : Advanced Video Codec
Format profile : High@L4.1
Format settings, CABAC : Yes
Format settings, ReFrames : 12 frames
Codec ID : V_MPEG4/ISO/AVC
Duration : 1 h 36 min
Bit rate : 1 574 kb/s
Width : 1 024 pixels
Height : 428 pixels
Display aspect ratio : 2.40:1
Frame rate mode : Constant
Frame rate : 23.976 (24000/1001) FPS
Color space : YUV
Chroma subsampling : 4:2:0
Bit depth : 8 bits
Scan type : Progressive
Bits/(Pixel*Frame) : 0.150
Stream size : 1.02 GiB (63%)
Title : Enigma
Writing library : x264 core 144 r2525 40bb568
Encoding settings : cabac=1 / ref=12 / deblock=1:-3:-3 / analyse=0x3:0x113 / me=umh / subme=10 / psy=1 / psy_rd=1.05:0.10 / mixed_ref=1 / me_range=32 / chroma_me=1 / trellis=2 / 8x8dct=1 / cqm=0 / deadzone=21,11 / fast_pskip=1 / chroma_qp_offset=-3 / threads=12 / lookahead_threads=3 / sliced_threads=0 / nr=0 / decimate=0 / interlaced=0 / bluray_compat=0 / constrained_intra=0 / bframes=10 / b_pyramid=2 / b_adapt=2 / b_bias=0 / direct=3 / weightb=1 / open_gop=0 / weightp=2 / keyint=240 / keyint_min=23 / scenecut=40 / intra_refresh=0 / rc_lookahead=40 / rc=2pass / mbtree=0 / bitrate=1574 / ratetol=1.0 / qcomp=0.60 / qpmin=0 / qpmax=51 / qpstep=4 / cplxblur=20.0 / qblur=0.5 / vbv_maxrate=50000 / vbv_bufsize=62500 / nal_hrd=none / filler=0 / ip_ratio=1.40 / pb_ratio=1.30 / aq=1:1.00
Language : English
Default : Yes
Forced : No
Color range : Limited
Color primaries : BT.709
Transfer characteristics : BT.709
Matrix coefficients : BT.709

Audio #1
ID : 2
Format : AC-3
Format/Info : Audio Coding 3
Mode extension : CM (complete main)
Format settings, Endianness : Big
Codec ID : A_AC3
Duration : 1 h 36 min
Bit rate mode : Constant
Bit rate : 384 kb/s
Channel(s) : 6 channels
Channel positions : Front: L C R, Side: L R, LFE
Sampling rate : 48.0 kHz
Frame rate : 31.250 FPS (1536 spf)
Compression mode : Lossy
Stream size : 264 MiB (16%)
Title : Dub (iTunes)
Language : Russian
Default : Yes
Forced : No

Audio #2
ID : 3
Format : AC-3
Format/Info : Audio Coding 3
Mode extension : CM (complete main)
Format settings, Endianness : Big
Codec ID : A_AC3
Duration : 1 h 36 min
Bit rate mode : Constant
Bit rate : 448 kb/s
Channel(s) : 6 channels
Channel positions : Front: L C R, Side: L R, LFE
Sampling rate : 48.0 kHz
Frame rate : 31.250 FPS (1536 spf)
Compression mode : Lossy
Stream size : 308 MiB (19%)
Language : English
Default : No
Forced : No

Text #1
ID : 4
Format : UTF-8
Codec ID : S_TEXT/UTF8
Codec ID/Info : UTF-8 Plain Text
Title : Full
Language : Russian
Default : No
Forced : No

Text #2
ID : 5
Format : UTF-8
Codec ID : S_TEXT/UTF8
Codec ID/Info : UTF-8 Plain Text
Language : English
Default : No
Forced : No

Menu
00:00:00.000 : :Chapter 01
00:09:44.666 : :Chapter 02
00:19:59.823 : :Chapter 03
00:29:33.563 : :Chapter 04
00:41:44.626 : :Chapter 05
00:52:07.958 : :Chapter 06
01:00:43.930 : :Chapter 07
01:14:08.819 : :Chapter 08
01:22:11.591 : :Chapter 09
01:31:53.341 : :Chapter 10
01:35:29.347 : :Chapter 11
Релиз от:

Автор релиза: piratbit.org



Скачать Искусственный интеллект. Доступ неограничен через торрент http://s41.radikal.ru/i094/1610/ad/3d03814aa65a.jpg Скачать фильм Искусственный интеллект. Доступ неограничен через торрент бесплантно в хорошем качестве Описание: Вся жизнь Майка Ригана и его семьи построена на последних достижениях искусственного интеллекта и высоких технологий, а его ... 9.2 10 13
Info! Золотая раздача, скачанное не засчитывается.
Торрент: Зарегистрирован [2017-07-21 23:13] · скачан: 431 раз
Статус: √ проверено
Размер: 1.61 GB
Как cкачать? Как скачать Искусственный интеллект. Доступ неограничен через торрент | UTorrent

28-11-2019 20:33  

Отключить всю рекламу на сайте

03-08-2017 21:49 Искусственный интеллект. Доступ неограничен Скачать торрент  

I.T. = Искусственный интеллект. Доступ неограничен? Вы серьезно?)
Очередное высосаное из пальца название рускоговорящими дебилами переводчиками?piratbit.org



    Дорогой пользователь! Огромная просьба, поблагодарите релизера, оцените раздачу и оставьте свои комментарий, если Вы скачали Искусственный интеллект. Доступ неограничен через торрент бесплатно! Внесите свою лепту в развитие PiratBit!
    Комментировать посты могут только пользователи прошедшие не сложную регистрацию
    Показать сообщения:    

    Искусственный интеллект. Доступ неограничен через торрент
    Скачать бесплатно Искусственный интеллект. Доступ неограничен
    Искусственный интеллект. Доступ неограничен скачать торрент
    Искусственный интеллект. Доступ неограничен смотреть онлайн
    Cкачать фильм Искусственный интеллект. Доступ неограничен бесплатно
    Искусственный интеллект. Доступ неограничен скачать торрент в хорошем качестве
    Искусственный интеллект. Доступ неограничен смотреть онлайн бесплатно в хорошем качестве


    Вы не можете начинать темы
    Вы не можете отвечать на сообщения
    Вы не можете редактировать свои сообщения
    Вы не можете удалять свои сообщения
    Вы не можете голосовать в опросах
    Вы не можете прикреплять файлы к сообщениям
    Вы можете скачивать файлы