Лицензия

MVO

1

1 сезон

Лицензия

Лицензия

13

MVO

1 сезон

Deluxe Edition

pack

Рекомендуем

30

Repack

ВАЖНО

ВАЖНО

Ghostwire

RePack

jed

RePack

fifa19

RePack

RDR2

RePack

NEED FOR SPEED™ PAYBACK

RePack

Кинопоиск HD

 Острые козырьки 6 сезон

6 сезон

FAR CRY 6

RePack

Лицензия

MVO

1

1 сезон

1 сезон

Лицензия

  

Игра престолов / Game of Thrones / Сезон: 7 / Серии: 1-7 из 7 (Алан Тейлор, Даниэль Минахан, Дэвид Наттер) [2017 г., фэнтези, драма, WEBRip 1080p] [MVO] (AlexFilm)

Игра престолов через торрент piratbit.org

Размер: 27 GB | Добавлен: 5 лет назад | Торрент скачан:167 раз
Смотреть онлайн Игра престолов | Скачать   

24-07-2017 07:55 Игра престолов Скачать торрент  

Игра престолов / Game of Thrones Год выпуска: 2017
Страна: США, Великобритания
Жанр: фэнтези, драма
Продолжительность: 1х ~ 01:00:00
Озвучание: Профессиональное (многоголосое закадровое) (AlexFilm)

Авторы сценария: Дэвид Беньофф, Д.Б.Вейсс, Брайан Когман, Дэйв Хилл
Режиссеры: Майкл Словис, Марк Майлод, Джереми Подесва, Мигель Сапочник, Дэвид Наттер

В ролях: Питер Динклэйдж (Тирион Ланнистер), Лена Хиди (Серсея Ланнистер), Николай Костер-Вальдау (Джейме Ланнистер), Эмилия Кларк (Дейенерис Таргариен), Эйдан Гиллен (Петир Бейлиш), Иэн Глен (сир Джорах Мормонт), Кит Харингтон (Джон Сноу), Лиам Каннингэм (сир Давос Сиворт), Айзек Хэмпстед-Райт (Бран Старк), Софи Тернер (Санса Старк), Мэйси Уильямс (Арья Старк), Элфи Аллен (Теон Грейджой), Джон Брэдли-Уэст (Сэмвел Тарли), Стивен Диллэйн (король Станнис Баратеон), Кэрис Ван Хаутен (Мелисандра), Джером Флинн (Бронн), Конлет Хилл (лорд Варис)...

Описание: «Игра престолов» сериал HBO, основанный на бестселлерах Джорджа Р.Р. Мартина. В мире, где лето и зимы длятся десятилетиями, на кону корона Вестероса. Предательство, похоть, интриги и сверхъестественные силы сотрясают все четыре стороны Королевства — от плетущего интриги юга, диких восточных земель, до замерзшего севера и древней Стены, что защищает королевство от тьмы за нею. Короли и королевы, рыцари и мятежники, лжецы и благородные люди борются за Влacть в кровавом сражении за Железный Трон.

Релиз:

Перевод: Александр Митраков (Opel), Илья Белкин (Volverine73)& Westeros.ru (форум Ночного Дозора у Стены)
Монтаж и сведение звука: Михаил Шорыгин
Роли озвучивали:
Евгения Тихонова
Анна Тух
Пётр Иващенко (Гланц)
Константин Погодаев
Роман Сопко
Михаил Суслов
Кирилл Патрино
Станислав Черсков



Внимание! В сериале присутствуют сцены с обнаженной натурой!

Качество: WEBRip 1080p (Game.of.Thrones.S07E01.Dragonstone.REPACK.1080p.AMZN.WEBRip.DDP5.1.x264-GoT)
Формат: MKV
Видео: 1920х1080 (16:9), 23.976 fps, MPEG-4 AVC ~7 300 Kbps, 0.148 bit/pixel
Аудио Rus: 48 kHz, AC3 Dolby Digital, 3/2 (L,C,R,l,r) + LFE ch, ~384.00 kbps
Аудио Eng: 48 kHz, AC3 Dolby Digital, 3/2 (L,C,R,l,r) + LFE ch, ~384.00 kbps
Субтитры: русские форсированные (на дотракийскую и валирийскую речь)
скриншот   скриншот   скриншот  
Complete name : M:\Torrents\video\Game of Thrones - Season 7 (AlexFilm) WEBRip 1080p\Game.of.Thrones.s07e01.WEBRip.1080p.Rus.Eng.AlexFilm.mkv
Format : Matroska
Format version : Version 4 / Version 2
File size : 3.40 GiB
Duration : 58 min 56 s
Overall bit rate mode : Variable
Overall bit rate : 8 269 kb/s
Encoded date : UTC 2017-07-19 10:02:33
Writing application : mkvmerge v6.1.0 ('Old Devil') built on Mar 4 2013 09:10:42
Writing library : libebml v1.3.0 + libmatroska v1.4.0

Video
ID : 1
Format : AVC
Format/Info : Advanced Video Codec
Format profile : High@L4
Format settings, CABAC : Yes
Format settings, ReFrames : 4 frames
Codec ID : V_MPEG4/ISO/AVC
Duration : 58 min 56 s
Bit rate mode : Variable
Bit rate : 7 337 kb/s
Maximum bit rate : 15.0 Mb/s
Width : 1 920 pixels
Height : 1 080 pixels
Display aspect ratio : 16:9
Frame rate mode : Constant
Frame rate : 23.976 (24000/1001) FPS
Color space : YUV
Chroma subsampling : 4:2:0
Bit depth : 8 bits
Scan type : Progressive
Bits/(Pixel*Frame) : 0.148
Stream size : 3.02 GiB (89%)
Default : Yes
Forced : No
Color range : Limited
Color primaries : BT.709
Transfer characteristics : BT.709
Matrix coefficients : BT.709

Audio #1
ID : 2
Format : AC-3
Format/Info : Audio Coding 3
Mode extension : CM (complete main)
Format settings, Endianness : Big
Codec ID : A_AC3
Duration : 58 min 56 s
Bit rate mode : Constant
Bit rate : 384 kb/s
Channel(s) : 6 channels
Channel positions : Front: L C R, Side: L R, LFE
Sampling rate : 48.0 kHz
Frame rate : 31.250 FPS (1536 spf)
Compression mode : Lossy
Delay relative to video : 3 ms
Stream size : 162 MiB (5%)
Title : DD 5.1 AlexFilm
Language : Russian
Default : Yes
Forced : No

Audio #2
ID : 3
Format : AC-3
Format/Info : Audio Coding 3
Mode extension : CM (complete main)
Format settings, Endianness : Big
Codec ID : A_AC3
Duration : 58 min 56 s
Bit rate mode : Constant
Bit rate : 384 kb/s
Channel(s) : 6 channels
Channel positions : Front: L C R, Side: L R, LFE
Sampling rate : 48.0 kHz
Frame rate : 31.250 FPS (1536 spf)
Compression mode : Lossy
Delay relative to video : 3 ms
Stream size : 162 MiB (5%)
Title : Eng
Language : English
Default : No
Forced : No
Когда раздача ведётся путём добавления новых серий, при каждом добавлении создётся новый торрент. Чтобы начать докачку новой серии, пользователям необходимо сделать следующее:
(1) остановить скачивание,
(2) удалить старый торрент у себя из клиента (старые серии удалять не надо),
(3) скачать новый торрент и запустить его у себя в клиенте вместо старого, при этом указать клиенту путь в старую папку, куда и должно происходить скачивание новых серий.
Ваш клиент при этом должен произвести хеширование (проверку) старой папки (если не производит сам - помогите ему сделать это), и будет докачивать только те серии, которых у вас ещё нет. Старые серии при этом не удаляются, а продолжают раздаваться!
Eсли вы уже удалили старые серии, то предотвратить повторную закачку старых серий можно, отжав галочку в соответсвующих местах при запуске нового торрента. По возможности, желательно не удалять старые серии как можно дольше, чтобы релизёр не столько продолжал раздавать старые серии, а смог сконцентрироваться на новых.



Скачать Игра престолов через торрент http://i93.fastpic.ru/big/2017/0724/aa/ed6712d912f5e7fbe10e724f5a2e99aa.jpg Скачать, смотреть онлайн Игра престолов бесплантно в хорошем качестве Описание: «Игра престолов» сериал HBO, основанный на бестселлерах Джорджа Р.Р. Мартина. В мире, где лето и зимы длятся десятилетиями, на ... 9.9 10 36
Торрент: Зарегистрирован [2017-08-30 06:39] · скачан: 167 раз
Статус: √ проверено
Размер: 27 GB
Как cкачать? Как скачать Игра престолов через торрент | UTorrent

% Раздел Тема Автор DL S | L
Игра престолов [ 109.58 GB ] Игра престолов / Game of Thrones / Сезон: 1-8 из 8 / Серии: 1-73 из 73 | DUB | DLRip 1080p sheker187 Скачать
5 | 7
Игра престолов [ 322.59 GB ] Игра престолов / Game of Thrones / Сезон: 1-8 из 8 / Серии: 1-73 из 73 | LostFilm | DLRip 1080p sheker187 Скачать
3 | 3
Игра престолов [ 297.23 GB ] Игра престолов / Game of Thrones / Сезон: 1-7 из 7 / Серии: 1-67 из 67 | LostFilm | 1080p sheker187 Скачать
1 | 0
Игра престолов [ 7.26 GB ] Игра Престолов / Game of Thrones / Сезон: 8 / Серии: 1-6 из 6 | Лицензия | BDRip от Twi7ter Twi7ter Скачать
17 | 1
Игра престолов [ 25.89 GB ] Игра престолов / Game of Thrones / Сезон: 8 / Серии: 1-6 из 6 | Amedia | 1080p bober100 Скачать
1 | 0
Игра престолов [ 13.35 GB ] Игра престолов / Game of Thrones / Сезон: 8 / Серии: 1-6 из 6 | Amedia 5.1 | 720p bober100 Скачать
1 | 0
Игра престолов [ 7.41 GB ] Игра Престолов / Game of Thrones / Сезон: 8 / Серии: 1-6 из 6 | Дубляж - | DLRip от Twi7ter Twi7ter Скачать
2 | 0



Последний раз редактировалось: killermax2013 (2017-08-30 06:39), всего редактировалось 5 раз(а)

28-11-2019 20:33  

Отключить вcю реклaмy на сайте

18-08-2017 21:41 Игра престолов Скачать торрент  

вот спасибки



    Дорогой пользователь! Огромная просьба, поблагодарите релизера, оцените раздачу и оставьте свои комментарий, если Вы скачали Игра престолов через торрент бесплатно!!
    Комментировать посты могут только пользователи прошедшие не сложную регистрацию
    Показать сообщения:    


    Игра престолов через торрент
    Скачать бесплатно Игра престолов
    Игра престолов скачать торрент
    Игра престолов смотреть онлайн
    Cкачать фильм Игра престолов бесплатно
    Игра престолов скачать торрент в хорошем качестве
    Игра престолов смотреть онлайн бесплатно в хорошем качестве
    Вы не можете начинать темы
    Вы не можете отвечать на сообщения
    Вы не можете редактировать свои сообщения
    Вы не можете удалять свои сообщения
    Вы не можете голосовать в опросах
    Вы не можете прикреплять файлы к сообщениям
    Вы можете скачивать файлы