1 сезон

3 сезон

iTunes

1

iTunes

DUB Netflix

iTunes

13

1 сезон

RePack

30

Deluxe

pack

Легкие деньги

ВАЖНО

ИГРА 18+

pack

RePack

MK11

RePack

jed

RePack

fifa19

RePack

RDR2

RePack

NEED FOR SPEED™ PAYBACK

4 сезон

9 сезон

Бесстыжие 9 сезон

Все сериалы

все сериалы на PB.wtf

RePack

FAR CRY 5

Anonymous, добрый вечер, мы не успеваем до 1 числа собрать деньги на оплату серверов, помогите нам пожалуйста в это трудное время. В качестве благодарности мы отключим Вам всю рекламу на сайте (укажите свой ник в строку Ваше имя)!

×
  
Magnet ссылка

Почти семнадцать / The Edge of Seventeen (Келли Фрэмон) [2016, Драма, комедия, BDRip-AVC] MVO [Лицензия] - ExKinoRay piratbit.org

Почти семнадцать через торрент piratbit.org

Размер: 1.96 GB | Добавлен: 3 года 10 мес. назад | Торрент скачан:242 раза
Скачать  

28-07-2017 21:21 Почти семнадцать Скачать торрент  

Информация о фильме
Название: Почти семнадцать
Оригинальное название: The Edge of Seventeen
Год выпуска: 2016
Выпущено: США, Gracie Films, The Robert Simonds Company
Жанр: Драма, комедия
Продолжительность: 01:45:21
Перевод: Профессиональный многоголосый
Субтитры: Русские (Forced+Full), английские, украинские
Режиссер: Келли Фрэмон
В ролях: Хейли Стайнфелд, Хейли Лу Ричардсон, Блейк Дженнер, Кира Седжвик, Вуди Харрельсон, Хейден Сзето, Александр Кэлверт, Эрик Кинлисайд, Неста Купер, Дэниэл Бэйкон

Описание: В фильме рассказывается о непримечательной школьнице Надин. Она ненавидит свою жалкую жизнь, поскольку не может наладить отношения с окружающими людьми. С матерью у девочки постоянные конфликты, а её лучшая подруга начала встречаться с её братом. Единственный человек, с которым Надин может общаться, это школьный учитель. Он пытается открыть ей глаза на мир и показать, что на самом деле не всё так плохо, как она думает. Чтобы завести друзей нужно всего лишь сделать первый шаг, который юная школьница делает с большим трудом.

rating

Файл
Качество: BDRip (AVC)
Видео: MPEG-4 AVC, 1024x552 (1.85:1), 23.976 fps, ~1782 kbps avg, 0.131 bit/pixel
Аудио #1: AC-3, 48.0 KHz, 6 ch, 448 Kbps, CBR (Russian)
Аудио #2: AC-3, 48.0 KHz, 6 ch, 448 Kbps, CBR (English)


Без рекламы
General
Unique ID : 200488613440994494889948151625309800742 (0x96D4B3D15E7D00FFAAABE96A38D0C926)
Complete name : D:\The.Edge.of.Seventeen.2016.MVO.BDRip.AVC.ExKinoRay.mkv
Format : Matroska
Format version : Version 2
File size : 1.96 GiB
Duration : 1 h 45 min
Overall bit rate : 2 670 kb/s
Movie name : The Edge of Seventeen (2016) from ExKinoRay
Encoded date : UTC 2017-07-28 21:01:20
Writing application : mkvmerge v5.6.0 ('Kenya Kane') built on May 27 2012 16:44:04
Writing library : libebml v1.2.3 + libmatroska v1.3.0

Video
ID : 1
Format : AVC
Format/Info : Advanced Video Codec
Format profile : High@L4.1
Format settings, CABAC : Yes
Format settings, ReFrames : 12 frames
Codec ID : V_MPEG4/ISO/AVC
Duration : 1 h 45 min
Bit rate : 1 782 kb/s
Width : 1 024 pixels
Height : 552 pixels
Display aspect ratio : 1.85:1
Frame rate mode : Constant
Frame rate : 23.976 (24000/1001) FPS
Color space : YUV
Chroma subsampling : 4:2:0
Bit depth : 8 bits
Scan type : Progressive
Bits/(Pixel*Frame) : 0.131
Stream size : 1.27 GiB (64%)
Title : Enigma
Writing library : x264 core 144 r2525 40bb568
Encoding settings : cabac=1 / ref=12 / deblock=1:-2:-2 / analyse=0x3:0x113 / me=umh / subme=10 / psy=1 / psy_rd=1.05:0.10 / mixed_ref=1 / me_range=32 / chroma_me=1 / trellis=2 / 8x8dct=1 / cqm=0 / deadzone=21,11 / fast_pskip=1 / chroma_qp_offset=-3 / threads=12 / lookahead_threads=2 / sliced_threads=0 / nr=0 / decimate=0 / interlaced=0 / bluray_compat=0 / constrained_intra=0 / bframes=9 / b_pyramid=2 / b_adapt=2 / b_bias=0 / direct=3 / weightb=1 / open_gop=0 / weightp=2 / keyint=240 / keyint_min=23 / scenecut=40 / intra_refresh=0 / rc_lookahead=40 / rc=2pass / mbtree=0 / bitrate=1782 / ratetol=1.0 / qcomp=0.60 / qpmin=0 / qpmax=51 / qpstep=4 / cplxblur=20.0 / qblur=0.5 / vbv_maxrate=50000 / vbv_bufsize=62500 / nal_hrd=none / filler=0 / ip_ratio=1.40 / pb_ratio=1.30 / aq=1:1.00
Language : English
Default : Yes
Forced : No
Color range : Limited
Color primaries : BT.709
Transfer characteristics : BT.709
Matrix coefficients : BT.709

Audio #1
ID : 2
Format : AC-3
Format/Info : Audio Coding 3
Mode extension : CM (complete main)
Format settings, Endianness : Big
Codec ID : A_AC3
Duration : 1 h 45 min
Bit rate mode : Constant
Bit rate : 448 kb/s
Channel(s) : 6 channels
Channel positions : Front: L C R, Side: L R, LFE
Sampling rate : 48.0 kHz
Frame rate : 31.250 FPS (1536 spf)
Compression mode : Lossy
Stream size : 337 MiB (17%)
Title : MVO (Лицензия)
Default : Yes
Forced : No

Audio #2
ID : 3
Format : AC-3
Format/Info : Audio Coding 3
Mode extension : CM (complete main)
Format settings, Endianness : Big
Codec ID : A_AC3
Duration : 1 h 45 min
Bit rate mode : Constant
Bit rate : 448 kb/s
Channel(s) : 6 channels
Channel positions : Front: L C R, Side: L R, LFE
Sampling rate : 48.0 kHz
Frame rate : 31.250 FPS (1536 spf)
Compression mode : Lossy
Stream size : 337 MiB (17%)
Language : English
Default : No
Forced : No

Text #1
ID : 4
Format : UTF-8
Codec ID : S_TEXT/UTF8
Codec ID/Info : UTF-8 Plain Text
Title : Forced
Language : Russian
Default : Yes
Forced : No

Text #2
ID : 5
Format : UTF-8
Codec ID : S_TEXT/UTF8
Codec ID/Info : UTF-8 Plain Text
Title : Full
Language : Russian
Default : No
Forced : No

Text #3
ID : 6
Format : UTF-8
Codec ID : S_TEXT/UTF8
Codec ID/Info : UTF-8 Plain Text
Language : Ukrainian
Default : No
Forced : No

Text #4
ID : 7
Format : UTF-8
Codec ID : S_TEXT/UTF8
Codec ID/Info : UTF-8 Plain Text
Language : English
Default : No
Forced : No

Menu
00:00:00.000 : en:00:00:00.000
00:03:47.018 : en:00:03:47.018
00:07:41.419 : en:00:07:41.419
00:10:02.644 : en:00:10:02.644
00:18:46.292 : en:00:18:46.292
00:23:21.483 : en:00:23:21.483
00:26:42.434 : en:00:26:42.434
00:32:06.716 : en:00:32:06.716
00:36:51.501 : en:00:36:51.501
00:43:17.553 : en:00:43:17.553
00:48:21.190 : en:00:48:21.190
00:53:15.192 : en:00:53:15.192
01:00:29.918 : en:01:00:29.918
01:07:55.321 : en:01:07:55.321
01:12:46.988 : en:01:12:46.988
01:14:56.617 : en:01:14:56.617
01:21:48.779 : en:01:21:48.779
01:26:20.300 : en:01:26:20.300
01:30:59.162 : en:01:30:59.162
01:38:58.057 : en:01:38:58.057
Релиз от:

Автор релиза: piratbit.org



Скачать Почти семнадцать через торрент http://s019.radikal.ru/i604/1704/7a/d403945ae251.jpg Скачать фильм Почти семнадцать через торрент бесплантно в хорошем качестве Описание: В фильме рассказывается о непримечательной школьнице Надин. Она ненавидит свою жалкую жизнь, поскольку не может наладить ... 10 10 8
Info! Золотая раздача, скачанное не засчитывается.
Торрент: Зарегистрирован [2017-07-28 21:21] · скачан: 242 раз
Статус: √ проверено
Размер: 1.96 GB
Как cкачать? Как скачать Почти семнадцать через торрент | UTorrent

28-11-2019 20:33  

Отключить всю рекламу на сайте

29-07-2017 16:59 Почти семнадцать Скачать торрент  

Этот рекламный пират уже реально бесит!piratbit.org



29-07-2017 22:28 Почти семнадцать Скачать торрент  

cortess писал(а):

Этот рекламный пират уже реально бесит!

и не говорите сударь. задолбал уже с рекламой в каждой раздаче.piratbit.org



    Дорогой пользователь! Огромная просьба, поблагодарите релизера, оцените раздачу и оставьте свои комментарий, если Вы скачали Почти семнадцать через торрент бесплатно! Внесите свою лепту в развитие PiratBit!
    Комментировать посты могут только пользователи прошедшие не сложную регистрацию
    Показать сообщения:    

    Почти семнадцать через торрент
    Скачать бесплатно Почти семнадцать
    Почти семнадцать скачать торрент
    Почти семнадцать смотреть онлайн
    Cкачать фильм Почти семнадцать бесплатно
    Почти семнадцать скачать торрент в хорошем качестве
    Почти семнадцать смотреть онлайн бесплатно в хорошем качестве


    Вы не можете начинать темы
    Вы не можете отвечать на сообщения
    Вы не можете редактировать свои сообщения
    Вы не можете удалять свои сообщения
    Вы не можете голосовать в опросах
    Вы не можете прикреплять файлы к сообщениям
    Вы можете скачивать файлы