Ссылка на приватное зеркало всего за 1$. Внимание количество ограничено!!!

iTunes

iTunes

iTunes

1

iTunes

iTunes

iTunes

iTunes

iTunes

30
pack

$ от Little Big

ВАЖНО

!!Акция!!

Alien_RageХит недели

RePack

Resident Evil 21

ИГРА 18+

pack

RePack

jed

!!Акция!!

Alien_Rage

RePack

fifa19

RePack

Assassins Creed: Odyssey

RePack

NEED FOR SPEED™ PAYBACK

4 сезон

9 сезон

Бесстыжие 9 сезон

Все сериалы

все сериалы на PB.wtf

RePack

FAR CRY 5
  

Прощальный поцелуй / The Last Kiss (Тони Голдуин / Tony Goldwyn) [2006, комедия, мелодрама, драма, BDRip, 1080p] piratbit.org

Прощальный поцелуй через торрент piratbit.org

Размер: 8.09 GB | Добавлен: 9 лет 8 мес. назад | Торрент скачан:38 раз
Скачать  

18-10-2010 07:56 Прощальный поцелуй Скачать торрент  

Прощальный поцелуй / The Last Kiss«Мальчик резвый, кудрявый, влюбленный, не пора ли мужчиною быть?!..»
[img=right]http:// СПАМ
Год выпуска: 2006
Страна: США, Cineffects Productions Inc.
Жанр: комедия, мелодрама, драма
Продолжительность: 01:43:50
Субтитры: Русские
Перевод:
Профессиональный (полное дублирование)

Режиссер: Тони Голдуин / Tony Goldwyn
Сценарий: Пол Хаггис / Paul Haggis, Габриэль Муччино / Gabriele Muccino
Продюсер: Андре Ламал / Andre Lamal, Гари Лучези / Gary Lucchesi, Терри МакКэй / Terry McKay, Габриэль Муччино / Gabriele Muccino, Гуендалина Понти / Guendalina Ponti
Оператор: Том Стерн / Tom Stern
Композитор: Майкл Пенн / Michael Penn
Бюджет: $20 000 000 | Сборы в США: $11 614 790 | Сборы в мире: $15 625 265 | Сборы в России: $170 398
IMDB: 6.70 (20 142) | КиноПоиск: 7.203 (1 881)
КиноПоиск.Ru | IMDb.com | MPAA:R - Лицам до 17 лет обязательно присутствие взрослого

В ролях:
Зак Брафф (Michael), Джасинда Бэррет (Jenna), Кейси Аффлек (Chris), Рэйчел Билсон (Kim), Майкл Уэстон (Izzy), Эрик Кристиан Олсен (Kenny), Марли Шелтон (Arianna), Лоурен Ли Смит (Lisa), Харольд Рэмис (Professor Bowler), Блит Дэннер (Anna)
Описание:
Уже месяц, как Майклу исполнилось 30. У него есть все, о чем он мечтал: интересная работа, собственный дом и любимая девушка Джейн. Но узнав, что Джейн ждет ребенка, он трусливо спасовал перед реальностью, испугался, что его мечта о счастье разобьется о суровые будни…
Между тем и в жизни беззаботных доселе друзей Майкла грядут перемены. Лучший друг, наконец, решился взять на себя бремя ответственности и жениться. На его свадьбе Майкл встречает очаровательную Ким и влюбляется… Но перед окрыленным новым чувством Майклом вновь и вновь встает вопрос моцартовского повесы, плутоватого Фигаро: «Мальчик резвый, кудрявый, влюбленный, не пора ли мужчиною быть?!..»

Качество: BDRip | [img]http:// СПАМ | Формат: Matroska | Источник: The.Last.Kiss.2006.BluRay.1080p.DTS.x264-CHD
Видео кодек: H.264 | Аудио кодек: АС3, DTS
Видео: AVC; 1920x800 (2.35:1); 9414 Kbps; 23,976 fps; 0.25 bpp
Аудио № 1: Russian; 48 kHz, AC3 Dolby Digital, 2.0 ch, ~224.00 kbps avg
Аудио № 2: English; DTS; 48 kHz, 1510 Kbps; CBR; 6 ch; 24 bit
Субтитры: Russian

Complete name : The.Last.Kiss.2006.BluRay.1080p.DTS.x264-CHD.mkv
Format : Matroska
File size : 8.09 GiB
Duration : 1h 43mn
Overall bit rate : 11.2 Mbps
Encoded date : UTC 2010-10-01 15:49:58
Writing application : mkvmerge v3.3.0 ('Language') built on Mar 24 2010 14:59:24
Writing library : libebml v0.8.0 libmatroska v0.9.0
Video #1
ID : 1
Format : AVC
Format/Info : Advanced Video Codec
Format profile : High@L4.1
Format settings, CABAC : Yes
Format settings, ReFrames : 5 frames
Muxing mode : Container profile=Unknown@4.1
Codec ID : V_MPEG4/ISO/AVC
Duration : 1h 43mn
Bit rate : 9 194 Kbps
Nominal bit rate : 9 414 Kbps
Width : 1 920 pixels
Height : 800 pixels
Display aspect ratio : 2.40:1
Frame rate : 23.976 fps
Resolution : 8 bits
Colorimetry : 4:2:0
Scan type : Progressive
Bits/(Pixel*Frame) : 0.250
Stream size : 6.66 GiB (82%)
Title : The.Last.Kiss.2006.BluRay.1080p.DTS.x264-CHD
Writing library : x264 core 79 r1352M d487de4
Encoding settings : cabac=1 / ref=5 / deblock=1:-3:-3 / analyse=0x3:0x113 / me=umh / subme=9 / psy=1 / psy_rd=1.1:0.2 / mixed_ref=1 / me_range=32 / chroma_me=1 / trellis=2 / 8x8dct=1 / cqm=2 / deadzone=21,11 / chroma_qp_offset=-2 / threads=6 / nr=0 / decimate=1 / mbaff=0 / constrained_intra=0 / bframes=3 / b_pyramid=0 / b_adapt=2 / b_bias=0 / direct=3 / wpredb=1 / wpredp=0 / keyint=250 / keyint_min=25 / scenecut=40 / rc_lookahead=50 / rc=2pass / mbtree=1 / bitrate=9414 / ratetol=1.0 / qcomp=0.60 / qpmin=10 / qpmax=51 / qpstep=4 / cplxblur=20.0 / qblur=0.5 / vbv_maxrate=50000 / vbv_bufsize=50000 / ip_ratio=1.40 / aq=2:1.00 / pulldown=0 / nal_hrd=0
Language : English
Audio #2
ID : 2
Format : AC-3
Format/Info : Audio Coding 3
Codec ID : A_AC3
Duration : 1h 43mn
Bit rate mode : Constant
Bit rate : 224 Kbps
Channel(s) : 2 channels
Channel positions : L R
Sampling rate : 48.0 KHz
Stream size : 166 MiB (2%)
Language : Russian
Audio #3
ID : 3
Format : DTS
Format/Info : Digital Theater Systems
Codec ID : A_DTS
Duration : 1h 43mn
Bit rate mode : Constant
Bit rate : 1 510 Kbps
Channel(s) : 6 channels
Channel positions : Front: L C R, Surround: L R, LFE
Sampling rate : 48.0 KHz
Resolution : 24 bits
Stream size : 1.10 GiB (14%)
Language : English
Text #4
ID : 4
Format : UTF-8
Codec ID : S_TEXT/UTF8
Codec ID/Info : UTF-8 Plain Text
Language : Russian
Cемпл

Скриншоты:
[th]http:// СПАМ [th]http:// СПАМ [th]http:// СПАМ [th]http:// СПАМ
piratbit.org



Скачать Прощальный поцелуй через торрент http://pic.kartinco.top/images/6/gbzkm.jpg Скачать фильм Прощальный поцелуй через торрент бесплантно в хорошем качестве Описание:Уже месяц, как Майклу исполнилось 30. У него есть все, о чем он мечтал: интересная работа, собственный дом и любимая девушка ... 5 10 6
Info! Золотая раздача, скачанное не засчитывается.
Торрент: Зарегистрирован [2010-10-18 07:56] · скачан: 38 раз
Статус: √ проверено
Размер: 8.09 GB
Как cкачать? Как скачать Прощальный поцелуй через торрент | qTorrent

% Раздел Тема Автор DL S | L
Фильмы [HD 720p, 1080p] (Хороший звук DUB, MVO) [ 13.26 GB ] Прощальный поцелуй / The Last Kiss [2006 BDRip 1080p by msltel] DUB msltel Скачать
1 | 0
Фильмы [HD 720p, 1080p] (Хороший звук DUB, MVO) [ 4.34 GB ] Прощальный поцелуй / The Last Kiss [2006 BDRip 720p by msltel] DUB msltel Скачать
1 | 0
Фильмы 2006-2008 [ 1.46 GB ] Прощальный поцелуй / Last Kiss The [2006 DVDRip] shuller Скачать
1 | 0

28-11-2019 20:33  

Отключить всю рекламу на сайте

    Дорогой пользователь! Огромная просьба, поблагодарите релизера, оцените раздачу и оставьте свои комментарий, если Вы скачали Прощальный поцелуй через торрент бесплатно! Внесите свою лепту в развитие PiratBit!
    Комментировать посты могут только пользователи прошедшие не сложную регистрацию
    Показать сообщения:    

    Прощальный поцелуй через торрент
    Скачать бесплатно Прощальный поцелуй
    Прощальный поцелуй скачать торрент
    Прощальный поцелуй смотреть онлайн
    Cкачать фильм Прощальный поцелуй бесплатно
    Прощальный поцелуй скачать торрент в хорошем качестве
    Прощальный поцелуй смотреть онлайн бесплатно в хорошем качестве


    Вы не можете начинать темы
    Вы не можете отвечать на сообщения
    Вы не можете редактировать свои сообщения
    Вы не можете удалять свои сообщения
    Вы не можете голосовать в опросах
    Вы не можете прикреплять файлы к сообщениям
    Вы можете скачивать файлы