Лицензия

MVO

1

1 сезон

Лицензия

Лицензия

13

MVO

1 сезон

Deluxe Edition

pack

Рекомендуем

30

Repack

ВАЖНО

ВАЖНО

Ghostwire

RePack

jed

RePack

fifa19

RePack

RDR2

RePack

NEED FOR SPEED™ PAYBACK

RePack

Кинопоиск HD

 Острые козырьки 6 сезон

6 сезон

FAR CRY 6

RePack

Лицензия

MVO

1

1 сезон

1 сезон

Лицензия

  

Мистер Икс (Юлий Хмельницкий) [1958, мюзикл, мелодрама, комедия, SATRip от AVP Studio]

Мистер Икс через торрент piratbit.org

Размер: 1.09 GB | Добавлен: 5 лет 1 мес. назад | Торрент скачан:29 раз
Смотреть онлайн Мистер Икс | Скачать   

01-08-2017 08:33 Мистер Икс Скачать торрент  

Мистер Икс
Страна: СССР
Производство: Ленфильм

Жанр: мюзикл, мелодрама, комедия
Год выпуска: 1958
Продолжительность: 01:29:20

Перевод: Не требуется
Cубтитры: нет
Оригинальная аудиодорожка: русский

Режиссер: Юлий Хмельницкий

В ролях:
Георг Отс, Марина Юрасова, Анатолий Королькевич, Зоя Виноградова, Николай Каширский, Гликерия Богданова-Чеснокова, Григорий Ярон, Оскар Линд, Давид Волосов, Ефим Копелян, Георгий Кульбуш...
Об актёрах подробней

Описание:
Музыкальный телефильм по оперетте Имре Кальмана "Принцесса цирка". История любви знаменитого артиста цирка и богатой молодой вдовы графини Теодоры Вердье, всегда окруженной толпами поклонников. Графиня просит познакомить ее с таинственным цирковым артистом, ведь его выступления под куполом собирают аншлаги. Но Мистер Икс никогда не снимает свою черную маску...

Источник: DVB
Качество видео: SATRip
Формат видео: AVI

Видео: 688x512 (4:3), 25 fps, XviD ~ 1544 kbps avg, 0.175 bit/pixel
Аудио: 48 kHz, Dolby Digital AC3 2.0, 192 kbps

Раздача от:
Общее
Полное имя : Mister.Iks.1958.SATRip_[New-team]_by_AVP_Studio.avi
Формат : AVI
Формат/Информация : Audio Video Interleave
Размер файла : 1,09 Гбайт
Продолжительность : 1 ч. 29 м.
Общий поток : 1745 Кбит/сек
Программа кодирования : VirtualDubMod 1.5.10.3 | www.virtualdub-fr.org || (build 2550/release)
Библиотека кодирования : VirtualDubMod build 2550/release

Видео
Идентификатор : 0
Формат : MPEG-4 Visual
Профиль формата : Advanced Simple@L5
Параметр BVOP формата : 1
Параметр QPel формата : Нет
Параметр GMC формата : Без точки перехода
Параметр матрицы формата : Выборочная
Идентификатор кодека : XVID
Идентификатор кодека/Подсказка : XviD
Продолжительность : 1 ч. 29 м.
Битрейт : 1544 Кбит/сек
Ширина : 688 пикселей
Высота : 512 пикселей
Соотношение сторон : 4:3
Частота кадров : 25,000 кадров/сек
Цветовое пространство : YUV
Субдискретизация насыщенности : 4:2:0
Битовая глубина : 8 бит
Тип развёртки : Прогрессивная
Метод сжатия : С потерями
Бит/(Пиксели*Кадры) : 0.175
Размер потока : 986 Мбайт (88%)
Библиотека кодирования : XviD 73

Аудио
Идентификатор : 1
Формат : AC-3
Формат/Информация : Audio Coding 3
Параметр Endianness формата : Big
Идентификатор кодека : 2000
Продолжительность : 1 ч. 29 м.
Вид битрейта : Постоянный
Битрейт : 192 Кбит/сек
Каналы : 2 канала
Расположение каналов : Front: L R
Частота : 48,0 КГц
Частота кадров : 31,250 кадров/сек (1536 spf)
Битовая глубина : 16 бит
Метод сжатия : С потерями
Размер потока : 123 Мбайт (11%)
Выравнивание : Разделение по промежуткам
Продолжительность промежутка : 40 мс. (1,00 видеокадр)
Время предзагрузки промежутка : 500 мс



Скачать Мистер Икс через торрент http://s019.radikal.ru/i621/1708/f7/9b63965571a1.png Скачать, смотреть онлайн Мистер Икс бесплантно в хорошем качестве Описание:Музыкальный телефильм по оперетте Имре Кальмана "Принцесса цирка". История любви знаменитого артиста цирка и богатой молодой вдовы ... 10 10 1
Info! Золотая раздача, скачанное не засчитывается.
Торрент: Зарегистрирован [2017-08-01 08:33] · скачан: 29 раз
Статус: √ проверено
Размер: 1.09 GB
Как cкачать? Как скачать Мистер Икс через торрент | UTorrent

% Раздел Тема Автор DL S | L
Кино СССР [ 1.09 GB ] Мистер Икс | | SATRip-AVC от AVP Studio AVP Studio Скачать
1 | 0
Кино СССР [ 745 MB ] Мистер Икс | | SATRip от AVP Studio AVP Studio Скачать
1 | 0

28-11-2019 20:33  

Отключить вcю реклaмy на сайте

    Дорогой пользователь! Огромная просьба, поблагодарите релизера, оцените раздачу и оставьте свои комментарий, если Вы скачали Мистер Икс через торрент бесплатно!!
    Комментировать посты могут только пользователи прошедшие не сложную регистрацию
    Показать сообщения:    


    Мистер Икс через торрент
    Скачать бесплатно Мистер Икс
    Мистер Икс скачать торрент
    Мистер Икс смотреть онлайн
    Cкачать фильм Мистер Икс бесплатно
    Мистер Икс скачать торрент в хорошем качестве
    Мистер Икс смотреть онлайн бесплатно в хорошем качестве
    Вы не можете начинать темы
    Вы не можете отвечать на сообщения
    Вы не можете редактировать свои сообщения
    Вы не можете удалять свои сообщения
    Вы не можете голосовать в опросах
    Вы не можете прикреплять файлы к сообщениям
    Вы можете скачивать файлы