Лицензия

MVO

1

1 сезон

Лицензия

Лицензия

13

MVO

1 сезон

Deluxe Edition

pack

Рекомендуем

30

Repack

ВАЖНО

ВАЖНО

Ghostwire

RePack

jed

RePack

fifa19

RePack

RDR2

RePack

NEED FOR SPEED™ PAYBACK

RePack

Кинопоиск HD

 Острые козырьки 6 сезон

6 сезон

FAR CRY 6

RePack

Лицензия

MVO

1

1 сезон

1 сезон

Лицензия

  

Идиот (Иван Пырьев) [1958, СССР, драма, DVDRip от AVP Studio]

Идиот через торрент piratbit.org

Размер: 2.18 GB | Добавлен: 5 лет 1 мес. назад | Торрент скачан:23 раза
Смотреть онлайн Идиот | Скачать   

04-08-2017 10:00 Идиот Скачать торрент  

Идиот
Страна: СССР
Производство: Мосфильм

Жанр: драма
Год выпуска: 1958
Продолжительность: 01:55:59

Перевод: Не требуется
Cубтитры: нет
Оригинальная аудиодорожка: русский

Режиссер: Иван Пырьев

В ролях:
Юрий Яковлев, Юлия Борисова, Никита Подгорный, Леонид Пархоменко, Раиса Максимова, Вера Пашенная, Николай Пажитнов, Клавдия Половикова, Иван Любезнов, Людмила Иванова (II), Владимир Муравьёв, Сергей Мартинсон, Павел Стрелин, Григорий Шпигель...
Об актёрах подробней

Описание:
Фильм по первой части одноименного романа Ф.М.Достоевского ("Настасья Филипповна").
Князь Мышкин (Юрий Яковлев) возвращается в Россию из Швейцарии, где он проходил лечение в психиатрической клинике. В поезде, по дороге в Петербург, князь знакомится с Парфёном Рогожиным, который рассказывает ему о своей страстной любви к Настасье Филипповне (Юлия Борисова), бывшей содержанке миллионера Тоцкого. В Петербурге князь попадает в дом своей дальней родственницы – генеральши Еланчиной, знакомится с её мужем, их дочерьми, а также секретарём генерала Ганей Иволгиным. Случайно увиденный на столе у генерала портрет Настасьи Филипповны производит на князя большое впечатление…

Источник: DVD9 R5
Качество видео: DVDRip
Формат видео: AVI

Видео: 704x528 (4:3), 25 fps, XviD ~ 2233 kbps avg, 0.240 bit/pixel
Аудио: 48 kHz, Dolby Digital AC3 2.0, 192 kbps

Раздача от:
Общее
Полное имя : Idiot.1958.DVDRip_[New-team]_by_AVP_Studio.avi
Формат : AVI
Формат/Информация : Audio Video Interleave
Профиль формата : OpenDML
Размер файла : 2,18 Гбайт
Продолжительность : 1 ч. 55 м.
Общий поток : 2694 Кбит/сек
Программа кодирования : VirtualDubMod 1.5.10.3 | www.virtualdub-fr.org || (build 2550/release)
Библиотека кодирования : VirtualDubMod build 2550/release

Видео
Идентификатор : 0
Формат : MPEG-4 Visual
Профиль формата : Advanced Simple@L5
Параметр BVOP формата : 1
Параметр QPel формата : Нет
Параметр GMC формата : Без точки перехода
Параметр матрицы формата : Выборочная
Идентификатор кодека : XVID
Идентификатор кодека/Подсказка : XviD
Продолжительность : 1 ч. 55 м.
Битрейт : 2233 Кбит/сек
Ширина : 704 пикселя
Высота : 528 пикселей
Соотношение сторон : 4:3
Частота кадров : 25,000 кадров/сек
Цветовое пространство : YUV
Субдискретизация насыщенности : 4:2:0
Битовая глубина : 8 бит
Тип развёртки : Прогрессивная
Метод сжатия : С потерями
Бит/(Пиксели*Кадры) : 0.240
Размер потока : 1,81 Гбайт (83%)
Библиотека кодирования : XviD 73

Аудио
Идентификатор : 1
Формат : AC-3
Формат/Информация : Audio Coding 3
Параметр Endianness формата : Big
Идентификатор кодека : 2000
Продолжительность : 1 ч. 55 м.
Вид битрейта : Постоянный
Битрейт : 448 Кбит/сек
Каналы : 6 каналов
Расположение каналов : Front: L C R, Side: L R, LFE
Частота : 48,0 КГц
Частота кадров : 31,250 кадров/сек (1536 SPF)
Битовая глубина : 16 бит
Метод сжатия : С потерями
Размер потока : 372 Мбайт (17%)
Выравнивание : Разделение по промежуткам
Продолжительность промежутка : 40 мс. (1,00 видеокадр)
Время предзагрузки промежутка : 500 мс



Скачать Идиот через торрент http://s019.radikal.ru/i642/1708/cf/da2c480e2b98.png Скачать, смотреть онлайн Идиот бесплантно в хорошем качестве Описание:Фильм по первой части одноименного романа Ф.М.Достоевского ("Настасья Филипповна").Князь Мышкин (Юрий Яковлев) возвращается в ... 10 10 2
Info! Золотая раздача, скачанное не засчитывается.
Торрент: Зарегистрирован [2017-08-04 10:00] · скачан: 23 раз
Статус: √ проверено
Размер: 2.18 GB
Как cкачать? Как скачать Идиот через торрент | UTorrent

% Раздел Тема Автор DL S | L
Кино СССР [ 2.18 GB ] Идиот | | DVDRip-AVC от AVP Studio AVP Studio Скачать
1 | 0
Кино СССР [ 1.09 GB ] Идиот | | DVDRip от AVP Studio AVP Studio Скачать
1 | 0
Кино СССР [ 1.43 GB ] Идиот | | DVDRip-AVC smaster Скачать
1 | 0

28-11-2019 20:33  

Отключить вcю реклaмy на сайте

    Дорогой пользователь! Огромная просьба, поблагодарите релизера, оцените раздачу и оставьте свои комментарий, если Вы скачали Идиот через торрент бесплатно!!
    Комментировать посты могут только пользователи прошедшие не сложную регистрацию
    Показать сообщения:    


    Идиот через торрент
    Скачать бесплатно Идиот
    Идиот скачать торрент
    Идиот смотреть онлайн
    Cкачать фильм Идиот бесплатно
    Идиот скачать торрент в хорошем качестве
    Идиот смотреть онлайн бесплатно в хорошем качестве
    Вы не можете начинать темы
    Вы не можете отвечать на сообщения
    Вы не можете редактировать свои сообщения
    Вы не можете удалять свои сообщения
    Вы не можете голосовать в опросах
    Вы не можете прикреплять файлы к сообщениям
    Вы можете скачивать файлы