1 сезон

3 сезон

iTunes

1

iTunes

DUB Netflix

iTunes

13

1 сезон

RePack

30

Deluxe

pack

Легкие деньги

ВАЖНО

ИГРА 18+

pack

RePack

MK11

RePack

jed

RePack

fifa19

RePack

RDR2

RePack

NEED FOR SPEED™ PAYBACK

4 сезон

9 сезон

Бесстыжие 9 сезон

Все сериалы

все сериалы на PB.wtf

RePack

FAR CRY 5

Anonymous, добрый вечер, мы не успеваем до 1 числа собрать деньги на оплату серверов, помогите нам пожалуйста в это трудное время. В качестве благодарности мы отключим Вам всю рекламу на сайте (укажите свой ник в строку Ваше имя)!

×
  
Magnet ссылка

Затерянный город Z / The Lost City of Z (Джеймс Грэй) [2016, Боевик, драма, приключения, история, HDRip-AVC] DUB [Лицензия] - ExKinoRay piratbit.org

Затерянный город Z через торрент piratbit.org

Размер: 2.46 GB | Добавлен: 3 года 10 мес. назад | Торрент скачан:300 раз
Скачать  

04-08-2017 17:47 Затерянный город Z Скачать торрент  

Информация о фильме
Название: Затерянный город Z
Оригинальное название: The Lost City of Z
Год выпуска: 2016
Жанр: Боевик, драма, приключения, биография, история
Страна: США
Студия: Keep Your Head, MadRiver Pictures, MICA Entertainment
Продолжительность: 02:21:14
Перевод: Дублированный | Лицензия
Субтитры: Английские
Режиссер: Джеймс Грэй
В ролях: Чарли Ханнэм, Сиенна Миллер, Роберт Паттинсон, Том Холланд (II), Эдвард Эшли, Энгус Макфадьен, Иен МакДермид, Клайв Фрэнсис, Педро Коэльо, Мэтью Сандерлэнд

Описание: Эльдорадо, таинственная столица инков, загадочный Город Z… Вымысел или реальность? В 1925 году экспедиция полковника Фоссета, члена Королевского Географического общества, бесследно исчезла в джунглях Амазонии в поисках Города Z…


rating

Файл
Формат: MKV
Качество: HDRip-AVC
Видео: MPEG-4 AVC, 1024x428 (2.40:1), 1603 Kbit/s, 23.976 fps, 0,153 bpp
Звук:
Аудио1: 48 kHz, AC3, 5.1, 448 Kbps | Дублированный | Лицензия | RUS
Аудио2: 48 kHz, AC3, 5.1, 448 Kbps | ENG

Навигация по главам: есть
General
Unique ID : 207096391224245546712721986898798058823 (0x9BCD506A62F8E572ADBF3E1E8FB81D47)
Complete name : D:\The.Lost.City.of.Z.2016.D.HDRip.AVC.ExKinoRay.mkv
Format : Matroska
Format version : Version 2
File size : 2.46 GiB
Duration : 2 h 21 min
Overall bit rate : 2 498 kb/s
Movie name : The Lost City of Z (2016) from ExKinoRay
Encoded date : UTC 2017-08-04 17:11:29
Writing application : mkvmerge v5.6.0 ('Kenya Kane') built on May 27 2012 16:44:04
Writing library : libebml v1.2.3 + libmatroska v1.3.0

Video
ID : 1
Format : AVC
Format/Info : Advanced Video Codec
Format profile : High@L4.1
Format settings, CABAC : Yes
Format settings, ReFrames : 12 frames
Codec ID : V_MPEG4/ISO/AVC
Duration : 2 h 21 min
Bit rate : 1 603 kb/s
Width : 1 024 pixels
Height : 428 pixels
Display aspect ratio : 2.40:1
Frame rate mode : Constant
Frame rate : 23.976 (23976/1000) FPS
Color space : YUV
Chroma subsampling : 4:2:0
Bit depth : 8 bits
Scan type : Progressive
Bits/(Pixel*Frame) : 0.153
Stream size : 1.53 GiB (62%)
Title : Enigma
Writing library : x264 core 144 r2525 40bb568
Encoding settings : cabac=1 / ref=12 / deblock=1:-1:-2 / analyse=0x3:0x113 / me=umh / subme=10 / psy=1 / psy_rd=1.00:0.00 / mixed_ref=1 / me_range=32 / chroma_me=1 / trellis=2 / 8x8dct=1 / cqm=0 / deadzone=21,11 / fast_pskip=1 / chroma_qp_offset=-2 / threads=12 / lookahead_threads=3 / sliced_threads=0 / nr=0 / decimate=0 / interlaced=0 / bluray_compat=0 / constrained_intra=0 / bframes=10 / b_pyramid=2 / b_adapt=2 / b_bias=0 / direct=3 / weightb=1 / open_gop=0 / weightp=2 / keyint=240 / keyint_min=23 / scenecut=40 / intra_refresh=0 / rc_lookahead=40 / rc=2pass / mbtree=0 / bitrate=1603 / ratetol=1.0 / qcomp=0.63 / qpmin=0 / qpmax=51 / qpstep=4 / cplxblur=20.0 / qblur=0.5 / vbv_maxrate=50000 / vbv_bufsize=62500 / nal_hrd=none / filler=0 / ip_ratio=1.40 / pb_ratio=1.30 / aq=3:0.80
Language : English
Default : Yes
Forced : No
Color range : Limited
Color primaries : BT.709
Transfer characteristics : BT.709
Matrix coefficients : BT.709

Audio #1
ID : 2
Format : AC-3
Format/Info : Audio Coding 3
Mode extension : CM (complete main)
Format settings, Endianness : Big
Codec ID : A_AC3
Duration : 2 h 21 min
Bit rate mode : Constant
Bit rate : 448 kb/s
Channel(s) : 6 channels
Channel positions : Front: L C R, Side: L R, LFE
Sampling rate : 48.0 kHz
Frame rate : 31.250 FPS (1536 spf)
Compression mode : Lossy
Stream size : 453 MiB (18%)
Title : Dub (BD Rus)
Language : Russian
Default : Yes
Forced : No

Audio #2
ID : 3
Format : AC-3
Format/Info : Audio Coding 3
Mode extension : CM (complete main)
Format settings, Endianness : Big
Codec ID : A_AC3
Duration : 2 h 21 min
Bit rate mode : Constant
Bit rate : 448 kb/s
Channel(s) : 6 channels
Channel positions : Front: L C R, Side: L R, LFE
Sampling rate : 48.0 kHz
Frame rate : 31.250 FPS (1536 spf)
Compression mode : Lossy
Stream size : 453 MiB (18%)
Language : English
Default : No
Forced : No

Text
ID : 4
Format : UTF-8
Codec ID : S_TEXT/UTF8
Codec ID/Info : UTF-8 Plain Text
Language : English
Default : No
Forced : No

Menu
00:00:00.000 : en:00:00:00.000
00:08:21.751 : en:00:08:21.751
00:15:32.849 : en:00:15:32.849
00:21:29.038 : en:00:21:29.038
00:27:10.045 : en:00:27:10.045
00:34:57.637 : en:00:34:57.637
00:44:59.113 : en:00:44:59.113
00:49:36.432 : en:00:49:36.432
00:58:25.919 : en:00:58:25.919
01:04:43.338 : en:01:04:43.338
01:11:10.600 : en:01:11:10.600
01:21:22.294 : en:01:21:22.294
01:27:42.424 : en:01:27:42.424
01:30:42.854 : en:01:30:42.854
01:39:46.230 : en:01:39:46.230
01:43:59.984 : en:01:43:59.984
01:51:40.193 : en:01:51:40.193
01:56:11.089 : en:01:56:11.089
02:01:43.046 : en:02:01:43.046
02:08:34.373 : en:02:08:34.373
Релиз от:

Автор релиза: piratbit.org



Скачать Затерянный город Z через торрент http://s019.radikal.ru/i608/1706/63/73395ab443ab.jpg Скачать фильм Затерянный город Z через торрент бесплантно в хорошем качестве Описание: Эльдорадо, таинственная столица инков, загадочный Город Z… Вымысел или реальность? В 1925 году экспедиция полковника Фоссета, ... 10 10 8
Info! Золотая раздача, скачанное не засчитывается.
Торрент: Зарегистрирован [2017-08-04 17:47] · скачан: 300 раз
Статус: √ проверено
Размер: 2.46 GB
Как cкачать? Как скачать Затерянный город Z через торрент | UTorrent

% Раздел Тема Автор DL S | L
Фильмы 2016 [DVDrip, WEB-DLRip, HDrip] (DUB, MVO) [ 2.01 GB ] Затерянный город Z / The Lost City of Z [2016 история BDRip-AVC] DUB [] - ExKinoRay Enigma2010 Скачать
1 | 0
Фильмы 2016 [DVDrip, WEB-DLRip, HDrip] (DUB, MVO) [ 1.76 GB ] Затерянный город Z / The Lost City of Z [2016 история WEB-DLRip-AVC] - ExKinoRay Enigma2010 Скачать
1 | 0

28-11-2019 20:33  

Отключить всю рекламу на сайте

    Дорогой пользователь! Огромная просьба, поблагодарите релизера, оцените раздачу и оставьте свои комментарий, если Вы скачали Затерянный город Z через торрент бесплатно! Внесите свою лепту в развитие PiratBit!
    Комментировать посты могут только пользователи прошедшие не сложную регистрацию
    Показать сообщения:    

    Затерянный город Z через торрент
    Скачать бесплатно Затерянный город Z
    Затерянный город Z скачать торрент
    Затерянный город Z смотреть онлайн
    Cкачать фильм Затерянный город Z бесплатно
    Затерянный город Z скачать торрент в хорошем качестве
    Затерянный город Z смотреть онлайн бесплатно в хорошем качестве


    Вы не можете начинать темы
    Вы не можете отвечать на сообщения
    Вы не можете редактировать свои сообщения
    Вы не можете удалять свои сообщения
    Вы не можете голосовать в опросах
    Вы не можете прикреплять файлы к сообщениям
    Вы можете скачивать файлы