Мега распродажа FORZA HORIZON 4 ULTIMATE+ВСЕ DLC+ОНЛАЙН всего за 499р. 349 руб. (супер цена). Внимание количество ограничено!!!

iTunes

1+1

iTunes

мы

iTunes

1

1 сезон

Чернобыль

1 сезон

Ральф против интернета

Лицензия

ПШазам

8 сезон

Игра престолов

Лицензия

30
pack

ВАЖНО

!!Акция!!

Alien_RageХит недели

RePack

Resident Evil 21

ИГРА 18+

pack

RePack

Metro:Exodus

!!Акция!!

Alien_Rage

RePack

fifa19

RePack

Assassins Creed: Odyssey

RePack

NEED FOR SPEED™ PAYBACK

3 сезон

9 сезон

Бесстыжие 9 сезон

Все сериалы

все сериалы на PB.wtf

RePack

FAR CRY 5
Ребята, катастрофически не хватает 2730р. для оплаты серверов за ИЮНЬ (всвязи с блокировками трафик упал в 3 раза), 1-2р., выручайте.
  

Стрелок / Shooter / Сезон 2 / Серии 1-8 из 8 (Саймон Селлан Джоунс) [2017, боевик, драма, WEBRip] MVO [LostFilm] piratbit.org

Стрелок через торрент piratbit.org

Размер: 3.96 GB | Добавлен: 1 год 10 мес. назад | Торрент скачан:164 раза
Скачать  

04-08-2017 18:17 Стрелок Скачать торрент  

✧ Стрелок / ShooterГод выпуска: 2017
Страна: США
Жанр: боевик, драма
Продолжительность: 8 ~ 00:43:00
Перевод: Профессиональный многоголосый LostFilm
Субтитры: отсутствуют

Режиссер: Саймон Селлан Джоунс

rating

В ролях:

Шантель Ван Сантен, Райан Филипп, Омар Эппс, Эмили Риос, Эдди МакКлинток, Темби Лок, Дэвид Стюарт, Курт Макс Рунте, Дж.С. Уильямс и др.

Описание:

Главным персонажем является бывший морской пехотинец и снайпер Боб Суэггер. Не по своей воле он оказывается вовлеченным в тайный заговор, главная цель которого заключается в ликвидации американского президента. Догадавшись о том, что его планируют подставить, Боб уходит в бега и готовится к тому, чтобы найти настоящего киллера.

Качество: WEBRip | чистый видеоряд |
Формат: AVI
Видео кодек: XviD
Аудио кодек: MP3

Видео: ~ 1400 kbps, 720x400, 23,976 fps
Аудио#1: Ru: mp3, 48 KHz, 2 ch, 128 kbps
Аудио#2: En: mp3, 48 KHz, 2 ch, 128 kbps


скриншот   скриншот   скриншот   скриншот  

Общее
Полное имя : C:\Shooter (Season 02) LostFilm\Shooter.S02E01.WEBRip.Rus.Eng.LostFilm.avi
Формат : AVI
Формат/Информация : Audio Video Interleave
Размер файла : 501 Мбайт
Продолжительность : 41 м. 53 с.
Общий поток : 1671 Кбит/сек
Программа кодирования : VirtualDubMod 1.5.10.3 | www.virtualdub-fr.org || (build 2550/release)
Библиотека кодирования : VirtualDubMod build 2550/release

Видео
Идентификатор : 0
Формат : MPEG-4 Visual
Профиль формата : Advanced Simple@L5
Параметр BVOP формата : 1
Параметр QPel формата : Нет
Параметр GMC формата : Без точки перехода
Параметр матрицы формата : Default (MPEG)
Идентификатор кодека : XVID
Идентификатор кодека/Подсказка : XviD
Продолжительность : 41 м. 53 с.
Битрейт : 1401 Кбит/сек
Ширина : 720 пикселей
Высота : 400 пикселей
Соотношение сторон : 16:9
Частота кадров : 23,976 (23976/1000) кадра/сек
Цветовое пространство : YUV
Субдискретизация насыщенности : 4:2:0
Битовая глубина : 8 бит
Тип развёртки : Прогрессивная
Метод сжатия : С потерями
Бит/(Пиксели*Кадры) : 0.203
Размер потока : 420 Мбайт (84%)
Библиотека кодирования : XviD 73

Аудио #1
Идентификатор : 1
Формат : MPEG Audio
Версия формата : Version 1
Профиль формата : Layer 3
Режим : Joint stereo
Расширение режима : MS Stereo
Идентификатор кодека : 55
Идентификатор кодека/Подсказка : MP3
Продолжительность : 41 м. 53 с.
Вид битрейта : Постоянный
Битрейт : 128 Кбит/сек
Каналы : 2 канала
Частота : 48,0 КГц
Метод сжатия : С потерями
Размер потока : 38,4 Мбайт (8%)
Выравнивание : Соединение по промежуткам
Продолжительность промежутка : 42 мс. (1,00 видеокадр)
Время предзагрузки промежутка : 504 мс.

Аудио #2
Идентификатор : 2
Формат : MPEG Audio
Версия формата : Version 1
Профиль формата : Layer 3
Режим : Joint stereo
Расширение режима : MS Stereo
Идентификатор кодека : 55
Идентификатор кодека/Подсказка : MP3
Продолжительность : 41 м. 53 с.
Вид битрейта : Постоянный
Битрейт : 128 Кбит/сек
Каналы : 2 канала
Частота : 48,0 КГц
Метод сжатия : С потерями
Размер потока : 38,4 Мбайт (8%)
Выравнивание : Соединение по промежуткам
Продолжительность промежутка : 42 мс. (1,00 видеокадр)
Время предзагрузки промежутка : 504 мс.

Когда раздача ведётся путём добавления новых серий, при каждом добавлении создётся новый торрент. Чтобы начать докачку новой серии, пользователям необходимо сделать следующее:
(1) остановить скачивание,
(2) удалить старый торрент у себя из клиента (старые серии удалять не надо),
(3) скачать новый торрент и запустить его у себя в клиенте вместо старого, при этом указать клиенту путь в старую папку, куда и должно происходить скачивание новых серий.
Ваш клиент при этом должен произвести хеширование (проверку) старой папки (если не производит сам - помогите ему сделать это), и будет докачивать только те серии, которых у вас ещё нет. Старые серии при этом не удаляются, а продолжают раздаваться!
Eсли вы уже удалили старые серии, то предотвратить повторную закачку старых серий можно, отжав галочку в соответсвующих местах при запуске нового торрента. По возможности, желательно не удалять старые серии как можно дольше, чтобы релизёр не столько продолжал раздавать старые серии, а смог сконцентрироваться на новых.
piratbit.org



Скачать Стрелок через торрент http://s16.radikal.ru/i190/1708/3a/32250533eaff.png Скачать фильм Стрелок через торрент бесплантно в хорошем качестве Описание: Главным персонажем является бывший морской пехотинец и снайпер Боб Суэггер. Не по своей воле он оказывается вовлеченным в тайный ... 9.5 10 10
Торрент: Зарегистрирован [2017-09-09 14:45] · скачан: 164 раз
Статус: √ проверено
Размер: 3.96 GB
Как cкачать? Как скачать Стрелок через торрент | qTorrent

% Раздел Тема Автор DL S | L
Зарубежные сериалы [ 6.11 GB ] Стрелок / Shooter / Сезон: 2 / Серии 1-8 из 8 [2017 WEBRip-AVC] MVO [BaibaKo] GEKADOL Скачать
1 | 0
Зарубежные сериалы [ 9.11 GB ] Стрелок / Shooter / Сезон 2 / Серии 1-8 из 8 [2017 WEBRip 720p] MVO [Jaskier] bober100 Скачать
1 | 0
Зарубежные сериалы [ 3.96 GB ] Стрелок / Shooter / Сезон 2 / Серии 1-8 из 8 [2017 WEBRip] MVO [Jaskier] bober100 Скачать
1 | 0


>> Регистрируемся здесь <<






Отзывы и комментарии о схеме читаем и пишем здесь: ---> Отзывы и комментарии о схеме

Новые благодарочки в телеграм довольных пользователей:
скриншот   скриншот   скриншот   скриншот   скриншот

09-09-2017 19:04 Стрелок Скачать торрент  

во 2 сезоне 10 серий - если что так на минуточку )))piratbit.org



    Дорогой пользователь! Огромная просьба, поблагодарите релизера, оцените раздачу и оставьте свои комментарий, если Вы скачали Стрелок через торрент бесплатно! Внесите свою лепту в развитие PiratBit!
    Комментировать посты могут только пользователи прошедшие не сложную регистрацию
    Показать сообщения:    

    Стрелок через торрент
    Скачать бесплатно Стрелок
    Стрелок скачать торрент
    Стрелок смотреть онлайн
    Cкачать фильм Стрелок бесплатно
    Стрелок скачать торрент в хорошем качестве
    Стрелок смотреть онлайн бесплатно в хорошем качестве


    Вы не можете начинать темы
    Вы не можете отвечать на сообщения
    Вы не можете редактировать свои сообщения
    Вы не можете удалять свои сообщения
    Вы не можете голосовать в опросах
    Вы не можете прикреплять файлы к сообщениям
    Вы можете скачивать файлы