1 сезон

3 сезон

iTunes

1

iTunes

DUB Netflix

iTunes

13

1 сезон

RePack

30

Deluxe

pack

Легкие деньги

ВАЖНО

ИГРА 18+

pack

RePack

MK11

RePack

jed

RePack

fifa19

RePack

RDR2

RePack

NEED FOR SPEED™ PAYBACK

4 сезон

9 сезон

Бесстыжие 9 сезон

Все сериалы

все сериалы на PB.wtf

RePack

FAR CRY 5

Anonymous, добрый день, мы не успеваем до 1 числа собрать деньги на оплату серверов, помогите нам пожалуйста в это трудное время. В качестве благодарности мы отключим Вам всю рекламу на сайте (укажите свой ник в строку Ваше имя)!

×
  
Magnet ссылка

Затерянный город Z / The Lost City of Z (Джеймс Грэй) [2016, Боевик, драма, приключения, история, BDRip-AVC] DUB [Лицензия] (Локализованная версия) - ExKinoRay piratbit.org

Затерянный город Z через торрент piratbit.org

Размер: 2.01 GB | Добавлен: 3 года 10 мес. назад | Торрент скачан:878 раз
Скачать  

04-08-2017 21:22 Затерянный город Z Скачать торрент  

Информация о фильме
Название: Затерянный город Z
Оригинальное название: The Lost City of Z
Год выпуска: 2016
Жанр: Боевик, драма, приключения, биография, история
Страна: США
Студия: Keep Your Head, MadRiver Pictures, MICA Entertainment
Продолжительность: 02:20:41
Перевод: Дублированный | Лицензия
Режиссер: Джеймс Грэй
В ролях: Чарли Ханнэм, Сиенна Миллер, Роберт Паттинсон, Том Холланд (II), Эдвард Эшли, Энгус Макфадьен, Иен МакДермид, Клайв Фрэнсис, Педро Коэльо, Мэтью Сандерлэнд

Описание: Эльдорадо, таинственная столица инков, загадочный Город Z… Вымысел или реальность? В 1925 году экспедиция полковника Фоссета, члена Королевского Географического общества, бесследно исчезла в джунглях Амазонии в поисках Города Z…


rating

Файл
Формат: MKV
Качество: BDRip-AVC
Видео: MPEG-4 AVC, 1024x428 (2.40:1), 1598 Kbit/s, 24.000 fps, 0,152 bpp
Звук:
Аудио: 48 kHz, AC3, 5.1, 384 Kbps | Дублированный | RUS

Навигация по главам: есть
General
Unique ID : 217711393703514239626516910180774334241 (0xA3C9B071D27647F8A65AF46CDDBE4F21)
Complete name : D:\Lost.City.of.Z.2016.BDRip.AVC.ExKinoRay.mkv
Format : Matroska
Format version : Version 2
File size : 2.01 GiB
Duration : 2 h 20 min
Overall bit rate : 2 044 kb/s
Movie name : Затерянный город Z (2016) from ExKinoRay
Encoded date : UTC 2017-08-04 19:28:04
Writing application : mkvmerge v5.6.0 ('Kenya Kane') built on May 27 2012 16:44:04
Writing library : libebml v1.2.3 + libmatroska v1.3.0

Video
ID : 1
Format : AVC
Format/Info : Advanced Video Codec
Format profile : High@L4.1
Format settings, CABAC : Yes
Format settings, ReFrames : 13 frames
Codec ID : V_MPEG4/ISO/AVC
Duration : 2 h 20 min
Bit rate : 1 598 kb/s
Width : 1 024 pixels
Height : 428 pixels
Display aspect ratio : 2.40:1
Frame rate mode : Constant
Frame rate : 24.000 FPS
Color space : YUV
Chroma subsampling : 4:2:0
Bit depth : 8 bits
Scan type : Progressive
Bits/(Pixel*Frame) : 0.152
Stream size : 1.53 GiB (76%)
Title : Enigma
Writing library : x264 core 144 r2525 40bb568
Encoding settings : cabac=1 / ref=13 / deblock=1:-3:-3 / analyse=0x3:0x113 / me=umh / subme=10 / psy=1 / psy_rd=1.00:0.00 / mixed_ref=1 / me_range=32 / chroma_me=1 / trellis=2 / 8x8dct=1 / cqm=0 / deadzone=21,11 / fast_pskip=1 / chroma_qp_offset=-2 / threads=12 / lookahead_threads=3 / sliced_threads=0 / nr=0 / decimate=0 / interlaced=0 / bluray_compat=0 / constrained_intra=0 / bframes=12 / b_pyramid=2 / b_adapt=2 / b_bias=0 / direct=3 / weightb=1 / open_gop=0 / weightp=2 / keyint=240 / keyint_min=24 / scenecut=40 / intra_refresh=0 / rc_lookahead=40 / rc=2pass / mbtree=0 / bitrate=1598 / ratetol=1.0 / qcomp=0.65 / qpmin=0 / qpmax=51 / qpstep=4 / cplxblur=20.0 / qblur=0.5 / vbv_maxrate=50000 / vbv_bufsize=62500 / nal_hrd=none / filler=0 / ip_ratio=1.40 / pb_ratio=1.30 / aq=3:0.80
Language : English
Default : Yes
Forced : No
Color range : Limited
Color primaries : BT.709
Transfer characteristics : BT.709
Matrix coefficients : BT.709

Audio
ID : 2
Format : AC-3
Format/Info : Audio Coding 3
Mode extension : CM (complete main)
Format settings, Endianness : Big
Codec ID : A_AC3
Duration : 2 h 20 min
Bit rate mode : Constant
Bit rate : 448 kb/s
Channel(s) : 6 channels
Channel positions : Front: L C R, Side: L R, LFE
Sampling rate : 48.0 kHz
Frame rate : 31.250 FPS (1536 spf)
Compression mode : Lossy
Stream size : 451 MiB (22%)
Title : Dub (BD Rus)
Language : Russian
Default : Yes
Forced : No

Menu
00:00:00.000 : :Chapter 01
00:01:34.583 : :Chapter 02
00:15:17.000 : :Chapter 03
00:32:49.458 : :Chapter 04
00:49:20.416 : :Chapter 05
01:09:27.875 : :Chapter 06
01:30:27.583 : :Chapter 07
01:49:27.333 : :Chapter 08
02:05:57.458 : :Chapter 09
Релиз от:

Автор релиза: piratbit.org



Скачать Затерянный город Z через торрент http://s019.radikal.ru/i608/1706/63/73395ab443ab.jpg Скачать фильм Затерянный город Z через торрент бесплантно в хорошем качестве Описание: Эльдорадо, таинственная столица инков, загадочный Город Z… Вымысел или реальность? В 1925 году экспедиция полковника Фоссета, ... 9.9 10 15
Info! Золотая раздача, скачанное не засчитывается.
Торрент: Зарегистрирован [2017-08-04 21:22] · скачан: 878 раз
Статус: √ проверено
Размер: 2.01 GB
Как cкачать? Как скачать Затерянный город Z через торрент | UTorrent

% Раздел Тема Автор DL S | L
Фильмы 2016 [DVDrip, WEB-DLRip, HDrip] (DUB, MVO) [ 2.46 GB ] Затерянный город Z / The Lost City of Z [2016 история HDRip-AVC] DUB [] - ExKinoRay Enigma2010 Скачать
1 | 0
Фильмы 2016 [DVDrip, WEB-DLRip, HDrip] (DUB, MVO) [ 1.76 GB ] Затерянный город Z / The Lost City of Z [2016 история WEB-DLRip-AVC] - ExKinoRay Enigma2010 Скачать
1 | 0

28-11-2019 20:33  

Отключить всю рекламу на сайте

    Дорогой пользователь! Огромная просьба, поблагодарите релизера, оцените раздачу и оставьте свои комментарий, если Вы скачали Затерянный город Z через торрент бесплатно! Внесите свою лепту в развитие PiratBit!
    Комментировать посты могут только пользователи прошедшие не сложную регистрацию
    Показать сообщения:    

    Затерянный город Z через торрент
    Скачать бесплатно Затерянный город Z
    Затерянный город Z скачать торрент
    Затерянный город Z смотреть онлайн
    Cкачать фильм Затерянный город Z бесплатно
    Затерянный город Z скачать торрент в хорошем качестве
    Затерянный город Z смотреть онлайн бесплатно в хорошем качестве


    Вы не можете начинать темы
    Вы не можете отвечать на сообщения
    Вы не можете редактировать свои сообщения
    Вы не можете удалять свои сообщения
    Вы не можете голосовать в опросах
    Вы не можете прикреплять файлы к сообщениям
    Вы можете скачивать файлы