Доктор Стрэндж

Лицензия

Добыча

MVO

Дом дракона

1 сезон

Тор

Лицензия

Мэверик

Лицензия

Там, где раки поют

MVO

Властелин колец

1 сезон

Ultimate

pack

Рекомендуем

30

Repack

ВАЖНО

ВАЖНО

Ghostwire

RePack

jed

RePack

nioh2

RePack

RDR2

RePack

NEED FOR SPEED™ PAYBACK

RePack

скачать торрент

Кинопоиск HD

Острые козырьки 6 сезон

6 сезон

FAR CRY 6

RePack

скачать торрент

Лицензия

скачать торрент

MVO

1

1 сезон

скачать торрент

1 сезон

скачать торрент

Лицензия

  

Игра престолов / Game of Thrones / Сезон: 7 / Серии: 1-6 из 7 (Алан Тейлор, Даниэль Минахан, Дэвид Наттер) [2017 г., фэнтези, драма, WEB-DLRip 720p] [MVO] (SunshineStudio)

Игра престолов через торрент piratbit.org

Размер: 5.62 GB | Добавлен: 5 лет 1 мес. назад | Торрент скачан:69 раз
Смотреть онлайн | Скачать   

05-08-2017 05:54 Игра престолов Скачать торрент  

Игра престолов | Game of Thrones • Год выпуска: 2017
• Страна: США
• Жанр: Фэнтези, драма, приключения, экранизация
• Продолжительность: ~ 00:55:00
• Перевод: Любительский (многоголосый) | (SunshineStudio)

• Режиссёр: Алан Тейлор, Даниэль Минахан, Дэвид Наттер, Брайан Кирк, Тимоти Ван Паттен, Дэвид Петрарка

• В ролях: Лена Хиди, Питер Динклэйдж, Мишель Фэйрли, Эмилия Кларк, Кит Харингтон, Николай Костер-Валдау, Иэн Глен, Эйден Гиллен, Элфи Оуэн-Аллен, Мэйси Уильямс, Софи Тернер, Сибель Кекилли, Джеймс Космо, Стивен Диллэйн, Гетин Энтони, Гвендолин Кристи, Натали Дормер

• Описание: «Игра престолов» новый сериал HBO, основанный на бестселлерах Джорджа Р.Р. Мартина. В мире, где лето и зимы длятся десятилетиями, на кону корона Вестероса. Предательство, похоть, интриги и сверхъестественные силы сотрясают все четыре стороны Королевства — от плетущего интриги юга, диких восточных земель, до замерзшего севера и древней Стены, что защищает королевство от тьмы за нею. Короли и королевы, рыцари и мятежники, лжецы и благородные люди борются за Влacть в кровавом сражении за Железный Трон.



• Качество: WEB-DLRip 720p
• Формат: MKV
• Видео: x264, 1280x720 (16:9), 23.976 fps, ~1900 kbps
• Аудио: AC3, 48 kHz, 2 ch, 192 kbps - Rus
• Субтитры: нет
General
Unique ID : 210496395038218575621197693955564757919 (0x9E5C218BC50DBC97A4F85D2D4CA1E39F)
Complete name : E:\Game.of.Thrones.S07.720p.SunshineStudio\Game.of.Thrones.S07E01.720p.SunshineStudio.mkv
Format : Matroska
Format version : Version 4 / Version 2
File size : 910 MiB
Duration : 59mn 32s
Overall bit rate : 2 136 Kbps
Encoded date : UTC 2017-07-17 06:34:04
Writing application : mkvmerge v8.3.0 ('Over the Horizon') 64bit
Writing library : libebml v1.3.1 + libmatroska v1.4.2

Video
ID : 1
Format : AVC
Format/Info : Advanced Video Codec
Format profile : High@L3.1
Format settings, CABAC : Yes
Format settings, ReFrames : 4 frames
Codec ID : V_MPEG4/ISO/AVC
Duration : 59mn 32s
Bit rate : 1 902 Kbps
Width : 1 280 pixels
Height : 720 pixels
Display aspect ratio : 16:9
Frame rate mode : Constant
Frame rate : 23.976 fps
Color space : YUV
Chroma subsampling : 4:2:0
Bit depth : 8 bits
Scan type : Progressive
Bits/(Pixel*Frame) : 0.086
Stream size : 810 MiB (89%)
Writing library : x264 core 146 r2538 121396c
Encoding settings : cabac=1 / ref=1 / deblock=1:0:0 / analyse=0x3:0x113 / me=hex / subme=2 / psy=1 / psy_rd=1.00:0.00 / mixed_ref=0 / me_range=16 / chroma_me=1 / trellis=0 / 8x8dct=1 / cqm=0 / deadzone=21,11 / fast_pskip=1 / chroma_qp_offset=0 / threads=9 / lookahead_threads=3 / sliced_threads=0 / nr=0 / decimate=1 / interlaced=0 / bluray_compat=0 / constrained_intra=0 / bframes=3 / b_pyramid=2 / b_adapt=1 / b_bias=0 / direct=1 / weightb=1 / open_gop=0 / weightp=1 / keyint=250 / keyint_min=23 / scenecut=40 / intra_refresh=0 / rc_lookahead=10 / rc=crf / mbtree=1 / crf=18.0 / qcomp=0.60 / qpmin=0 / qpmax=69 / qpstep=4 / ip_ratio=1.40 / aq=1:1.00
Default : Yes
Forced : No

Audio
ID : 2
Format : AC-3
Format/Info : Audio Coding 3
Mode extension : CM (complete main)
Format settings, Endianness : Big
Codec ID : A_AC3
Duration : 59mn 32s
Bit rate mode : Constant
Bit rate : 192 Kbps
Channel(s) : 2 channels
Channel positions : Front: L R
Sampling rate : 48.0 KHz
Compression mode : Lossy
Stream size : 81.8 MiB (9%)
Default : Yes
Forced : No
скриншот  скриншот  скриншот  
Когда раздача ведётся путём добавления новых серий, при каждом добавлении создётся новый торрент. Чтобы начать докачку новой серии, пользователям необходимо сделать следующее:
(1) остановить скачивание,
(2) удалить старый торрент у себя из клиента (старые серии удалять не надо),
(3) скачать новый торрент и запустить его у себя в клиенте вместо старого, при этом указать клиенту путь в старую папку, куда и должно происходить скачивание новых серий.
Ваш клиент при этом должен произвести хеширование (проверку) старой папки (если не производит сам - помогите ему сделать это), и будет докачивать только те серии, которых у вас ещё нет. Старые серии при этом не удаляются, а продолжают раздаваться!
Eсли вы уже удалили старые серии, то предотвратить повторную закачку старых серий можно, отжав галочку в соответсвующих местах при запуске нового торрента. По возможности, желательно не удалять старые серии как можно дольше, чтобы релизёр не столько продолжал раздавать старые серии, а смог сконцентрироваться на новых.



Скачать Игра престолов через торрент http://i94.fastpic.ru/big/2017/0716/dd/0e662fe56b5803eb895c996e38f6e4dd.png Скачать, смотреть онлайн Игра престолов бесплантно в хорошем качестве Описание: «Игра престолов» новый сериал HBO, основанный на бестселлерах Джорджа Р.Р. Мартина. В мире, где лето и зимы длятся десятилетиями, ... 9.8 10 28
Торрент: Зарегистрирован [2017-08-17 20:03] · скачан: 69 раз
Статус: T временная
Размер: 5.62 GB
Как cкачать? Как скачать Игра престолов через торрент | UTorrent

% Раздел Тема Автор DL S | L
Игра престолов [ 109.58 GB ] Игра престолов / Game of Thrones / Сезон: 1-8 из 8 / Серии: 1-73 из 73 | DUB | DLRip 1080p sheker187 Скачать
4 | 4
Игра престолов [ 322.59 GB ] Игра престолов / Game of Thrones / Сезон: 1-8 из 8 / Серии: 1-73 из 73 | LostFilm | DLRip 1080p sheker187 Скачать
4 | 4
Игра престолов [ 297.23 GB ] Игра престолов / Game of Thrones / Сезон: 1-7 из 7 / Серии: 1-67 из 67 | LostFilm | 1080p sheker187 Скачать
1 | 1
Игра престолов [ 7.26 GB ] Игра Престолов / Game of Thrones / Сезон: 8 / Серии: 1-6 из 6 | Лицензия | BDRip от Twi7ter Twi7ter Скачать
18 | 2
Игра престолов [ 25.89 GB ] Игра престолов / Game of Thrones / Сезон: 8 / Серии: 1-6 из 6 | Amedia | 1080p bober100 Скачать
1 | 0
Игра престолов [ 13.35 GB ] Игра престолов / Game of Thrones / Сезон: 8 / Серии: 1-6 из 6 | Amedia 5.1 | 720p bober100 Скачать
1 | 0
Игра престолов [ 7.41 GB ] Игра Престолов / Game of Thrones / Сезон: 8 / Серии: 1-6 из 6 | Дубляж - | DLRip от Twi7ter Twi7ter Скачать
3 | 1



Последний раз редактировалось: killermax2013 (2017-08-17 20:03), всего редактировалось 1 раз

28-11-2019 20:33  


Отключить вcю реклaмy на сайте, в т.ч. и в плеере онлайн просмотра!

05-08-2017 05:55 Игра престолов Скачать торрент  

хацкеры слили как и обещали



05-08-2017 06:07 Игра престолов Скачать торрент  

Там русский перевод? Почему создатели сразу не выложат все серии. Раз в неделю по одной серии.
У людей бомбануло, и они сами взяли. На ютубе уже все пересказали.



05-08-2017 06:56 Игра престолов Скачать торрент  

Класс!!!



05-08-2017 07:43 Игра престолов Скачать торрент  

qwertyx писал(а):

Там русский перевод?

нет, китайский А вообще то в описании все указано



05-08-2017 09:06 Игра престолов Скачать торрент  

Посмотрел. А что там с пятой, будет слив или нет?



05-08-2017 10:45 Игра престолов Скачать торрент  

Праздник на улице тех, кому плевать с какой озвучкой и в каком качестве смотреть.



05-08-2017 12:22 Игра престолов Скачать торрент  

за 4 серию спасибо )) - еще бы 5-6 и 7 ))



05-08-2017 15:28 Игра престолов Скачать торрент  

al-toto писал(а):

за 4 серию спасибо )) - еще бы 5-6 и 7 ))

Вроде как весь сезон стырили, а вроде и не весь, только 4-ую



06-08-2017 20:39 Игра престолов Скачать торрент  

а качество получше и без таймера своровать не могли?



17-08-2017 20:04 Игра престолов Скачать торрент  

+5-6



    Дорогой пользователь! Огромная просьба, поблагодарите релизера, оцените раздачу и оставьте свои комментарий, если Вы скачали Игра престолов через торрент бесплатно!!
    Комментировать посты могут только пользователи прошедшие не сложную регистрацию
    Показать сообщения:    


    Игра престолов через торрент
    Скачать бесплатно Игра престолов
    Игра престолов скачать торрент
    Игра престолов смотреть онлайн
    Cкачать фильм Игра престолов бесплатно
    Игра престолов скачать торрент в хорошем качестве
    Игра престолов смотреть онлайн бесплатно в хорошем качестве
    Вы не можете начинать темы
    Вы не можете отвечать на сообщения
    Вы не можете редактировать свои сообщения
    Вы не можете удалять свои сообщения
    Вы не можете голосовать в опросах
    Вы не можете прикреплять файлы к сообщениям
    Вы можете скачивать файлы