1 сезон

3 сезон

iTunes

1

iTunes

DUB Netflix

iTunes

13

1 сезон

RePack

30

Deluxe

pack

Легкие деньги

ВАЖНО

ИГРА 18+

pack

RePack

MK11

RePack

jed

RePack

fifa19

RePack

RDR2

RePack

NEED FOR SPEED™ PAYBACK

4 сезон

9 сезон

Бесстыжие 9 сезон

Все сериалы

все сериалы на PB.wtf

RePack

FAR CRY 5

Anonymous, добрый день, мы не успеваем до 1 числа собрать деньги на оплату серверов, помогите нам пожалуйста в это трудное время. В качестве благодарности мы отключим Вам всю рекламу на сайте (укажите свой ник в строку Ваше имя)!

×
  
Magnet ссылка

Во всем виноват енот / Wakefield (Робин Суикорд) [2016, Драма, экранизация, BDRip-AVC] DUB [iTunes] piratbit.org

Во всем виноват енот через торрент piratbit.org

Размер: 1.55 GB | Добавлен: 3 года 10 мес. назад | Торрент скачан:647 раз
Скачать  

07-08-2017 05:26 Во всем виноват енот Скачать торрент  

Во всем виноват енот / WakefieldГод выпуска: 2016
Страна: США
Жанр: Драма, экранизация
Продолжительность: 01:38:12
Перевод: Дубляж iTunes
Субтитры: английские

Режиссер: Робин Суикорд

rating

В ролях:

Брайан Крэнстон, Дженнифер Гарнер, Джейсон О’Мара, Беверли Д`Анджело, Иэн Энтони Дэйл, Пиппа Беннетт-Уорнер, Эллери Спрейберри, Виктория Бруно, Исаак Лейва, Моника Лосон

Описание:

Говард Уэйкфилд, преуспевающий юрист, верный муж, заботливый отец двух дочерей, однажды круто изменил свою жизнь. Это произошло внезапно, когда он подходил к родному роскошному гнездышку в пригороде Нью-Йорка. Погнавшись за наглым енотом, сидевшим у него на пути, Уэйкфилд оказался на чердаке заброшенного гаража, откуда были видны светящиеся окна его гостиной. Накрыт стол, домочадцы ждут отца. «А что будет, если я пропаду? Будут ли плакать любящие крошки? Быстро ли жена найдет мне замену? Помрут ли они с голоду без моих доходов?» — подумал Говард и решил... остаться жить на чердаке. Фильм снят по мотивам рассказа Натаниэля Готорна.

Качество: BDRip-AVC
Формат: MKV
Видео кодек: H.264
Аудио кодек: AC3

Видео: 1024x436 (16:9), 23,976 fps, x264 ~1209 kbps avg, 0.113 bit/pixel
Аудио#1: 48 kHz, AC3 Dolby Digital, 3/2 (L,C,R,l,r) + LFE ch, ~384.00 kbps avg | RUS (iTunes)
Аудио#2: 48 kHz, AC3 Dolby Digital, 3/2 (L,C,R,l,r) + LFE ch, ~448.00 kbps avg | ENG
скриншот  скриншот  скриншот  скриншот  скриншот  

Общее
Уникальный идентификатор : 213823958970223182007175693068308762199 (0xA0DCFF1D4C8EAB17B33A7B57D686CE57)
Полное имя : D:Wakefield.2016.BDRip(AVC).OlLanDGroup.mkv
Формат : Matroska
Версия формата : Version 2
Размер файла : 1,55 Гбайт
Продолжительность : 1 ч. 48 м.
Общий поток : 2042 Кбит/сек
Название фильма : Wakefield.2016.BDRip(AVC).OlLanDGroup - TorpedoUK
Дата кодирования : UTC 2017-08-06 12:36:08
Программа кодирования : mkvmerge v7.8.0 ('River Man') 32bit built on Apr 3 2015 12:11:22
Библиотека кодирования : libebml v1.3.1 + libmatroska v1.4.2
Обложка : Yes
Attachments : cover_land.jpg / small_cover.jpg / small_cover_land.jpg / cover.jpg

Видео
Идентификатор : 1
Формат : AVC
Формат/Информация : Advanced Video Codec
Профиль формата : High@L4.1
Параметр CABAC формата : Да
Параметр ReFrames формата : 10 кадров
Идентификатор кодека : V_MPEG4/ISO/AVC
Продолжительность : 1 ч. 48 м.
Битрейт : 1209 Кбит/сек
Ширина : 1024 пикселя
Высота : 436 пикселей
Соотношение сторон : 2,35:1
Режим частоты кадров : Постоянный
Частота кадров : 23,976 (24000/1001) кадра/сек
Цветовое пространство : YUV
Субдискретизация насыщенности : 4:2:0
Битовая глубина : 8 бит
Тип развёртки : Прогрессивная
Бит/(Пиксели*Кадры) : 0.113
Размер потока : 909 Мбайт (57%)
Библиотека кодирования : x264 core 146 r2538 121396c
Настройки программы : cabac=1 / ref=10 / deblock=1:-3:-3 / analyse=0x3:0x133 / me=umh / subme=11 / psy=1 / psy_rd=1.00:0.07 / mixed_ref=1 / me_range=48 / chroma_me=1 / trellis=2 / 8x8dct=1 / cqm=0 / deadzone=21,11 / fast_pskip=0 / chroma_qp_offset=-3 / threads=6 / lookahead_threads=1 / sliced_threads=0 / nr=0 / decimate=0 / interlaced=0 / bluray_compat=0 / constrained_intra=0 / bframes=10 / b_pyramid=2 / b_adapt=2 / b_bias=0 / direct=3 / weightb=1 / open_gop=0 / weightp=2 / keyint=240 / keyint_min=23 / scenecut=40 / intra_refresh=0 / rc_lookahead=40 / rc=2pass / mbtree=0 / bitrate=1209 / ratetol=1.0 / qcomp=0.60 / qpmin=0 / qpmax=69 / qpstep=4 / cplxblur=20.0 / qblur=0.5 / vbv_maxrate=50000 / vbv_bufsize=62500 / nal_hrd=none / filler=0 / ip_ratio=1.40 / pb_ratio=1.30 / aq=1:1.00
Язык : English
Default : Да
Forced : Нет

Аудио #1
Идентификатор : 2
Формат : AC-3
Формат/Информация : Audio Coding 3
Расширение режима : CM (complete main)
Параметр Endianness формата : Big
Идентификатор кодека : A_AC3
Продолжительность : 1 ч. 48 м.
Вид битрейта : Постоянный
Битрейт : 384 Кбит/сек
Каналы : 6 каналов
Расположение каналов : Front: L C R, Side: L R, LFE
Частота : 48,0 КГц
Частота кадров : 31,250 кадров/сек (1536 spf)
Битовая глубина : 16 бит
Метод сжатия : С потерями
Размер потока : 299 Мбайт (19%)
Заголовок : iTunes
Язык : Russian
Default : Да
Forced : Нет

Аудио #2
Идентификатор : 3
Формат : AC-3
Формат/Информация : Audio Coding 3
Расширение режима : CM (complete main)
Параметр Endianness формата : Big
Идентификатор кодека : A_AC3
Продолжительность : 1 ч. 48 м.
Вид битрейта : Постоянный
Битрейт : 448 Кбит/сек
Каналы : 6 каналов
Расположение каналов : Front: L C R, Side: L R, LFE
Частота : 48,0 КГц
Частота кадров : 31,250 кадров/сек (1536 spf)
Битовая глубина : 16 бит
Метод сжатия : С потерями
Размер потока : 348 Мбайт (22%)
Заголовок : Original
Язык : English
Default : Нет
Forced : Нет

Текст
Идентификатор : 4
Формат : UTF-8
Идентификатор кодека : S_TEXT/UTF8
Идентификатор кодека/Информация : UTF-8 Plain Text
Заголовок : SDH
Язык : English
Default : Нет
Forced : Нет

Меню
00:00:00.000 : en:Chapter 01
00:08:04.108 : en:Chapter 02
00:16:38.580 : en:Chapter 03
00:25:59.516 : en:Chapter 04
00:33:39.934 : en:Chapter 05
00:42:29.421 : en:Chapter 06
00:52:36.903 : en:Chapter 07
01:00:31.169 : en:Chapter 08
01:09:14.733 : en:Chapter 09
01:17:53.669 : en:Chapter 10
01:26:07.996 : en:Chapter 11
01:37:10.407 : en:Chapter 12
01:48:41.848 : en:Chapter 13

piratbit.org



Скачать Во всем виноват енот через торрент http://lostpix.com/img/2017-08/06/1zjak8riwsj3pauh6ldgvphl6.jpg Скачать фильм Во всем виноват енот через торрент бесплантно в хорошем качестве Описание: Говард Уэйкфилд, преуспевающий юрист, верный муж, заботливый отец двух дочерей, однажды круто изменил свою жизнь. Это произошло ... 9.7 10 15
Торрент: Зарегистрирован [2017-08-07 05:26] · скачан: 647 раз
Статус: √ проверено
Размер: 1.55 GB
Как cкачать? Как скачать Во всем виноват енот через торрент | UTorrent

% Раздел Тема Автор DL S | L
Фильмы [HD 720p, 1080p] (Хороший звук DUB, MVO) [ 8.99 GB ] Во всем виноват енот / Wakefield [2016 BDRip 1080p] bober100 Скачать
1 | 0
Фильмы без перевода [ 3.78 GB ] Во всем виноват енот / Wakefield [2016 WEB-DL 1080p] [ENG] killermax2013 Скачать
1 | 0

28-11-2019 20:33  

Отключить всю рекламу на сайте

07-08-2017 20:51 Во всем виноват енот Скачать торрент  

Господи, какое же нытье. Целых полтора часа соплей.piratbit.org



08-08-2017 08:40 Во всем виноват енот Скачать торрент  

ФильмА для умных и зрелых людей. Смотреть желательно ДУШОЙ, а не только глазами. Особенно зайдёт мужчинам "за сорок", у кого был аналогичный кризис "бросить всё нах" или потуги к нему.
Молодёжь, если не вкатывают такие фильмы, это НЕ ОНИ плохи. Это вы пока ещё не доросли. Желчь свою не путайте с циничной мудростью. Смотрите трансформеров, со слюнями на жёлтых устах. Это ВАШЕ. И это хорошо. Придёт время, вы и Wakefield посмотрите с удовольствием. И bigbass поменяете на Шуберта и Генделя. Всему своё время. Не торопитесь жить. И судить о жизни...
ПыСы: Идиотское адаптированное для русских "Во всём виноват енот" придумал какой-то русский "енот". Это очень сильно девальвирует смысл картины. Хотя Уэйкфилд это фамилия главного героя, ещё это морской термин, обозначающий поле кильватерного следа - возмущённая полоса воды, остающаяся за кормой идущего корабля...
ПыСы 2: ОТКРЫТАЯ концовка - это не её отсутствие, это про "подумать" и проверить себя на элементарные человеческие качества: размышлять, мечтать и сопереживать. Если этого нет - "но концовка ... её нет ..."piratbit.org





Последний раз редактировалось: IvanDanko (2017-08-11 09:46), всего редактировалось 2 раз(а)

08-08-2017 22:48 Во всем виноват енот Скачать торрент  

Почти похвалил этот фильм , но концовка ... её нет ....piratbit.org



    Дорогой пользователь! Огромная просьба, поблагодарите релизера, оцените раздачу и оставьте свои комментарий, если Вы скачали Во всем виноват енот через торрент бесплатно! Внесите свою лепту в развитие PiratBit!
    Комментировать посты могут только пользователи прошедшие не сложную регистрацию
    Показать сообщения:    

    Во всем виноват енот через торрент
    Скачать бесплатно Во всем виноват енот
    Во всем виноват енот скачать торрент
    Во всем виноват енот смотреть онлайн
    Cкачать фильм Во всем виноват енот бесплатно
    Во всем виноват енот скачать торрент в хорошем качестве
    Во всем виноват енот смотреть онлайн бесплатно в хорошем качестве


    Вы не можете начинать темы
    Вы не можете отвечать на сообщения
    Вы не можете редактировать свои сообщения
    Вы не можете удалять свои сообщения
    Вы не можете голосовать в опросах
    Вы не можете прикреплять файлы к сообщениям
    Вы можете скачивать файлы