Доктор Стрэндж

Лицензия

Добыча

Дубляж

Дом дракона

1 сезон

Тор

Дубляж

В эфире

Дубляж

Там, где раки поют

MVO

Властелин колец

1 сезон

Ultimate

pack

Рекомендуем

30

Пиратка

ВАЖНО

ВАЖНО

Ghostwire

Пиратка

jed

RePack

nioh2

RePack

RDR2

RePack

NEED FOR SPEED™ PAYBACK

RePack

скачать торрент

Кинопоиск HD

Острые козырьки 6 сезон

6 сезон

FAR CRY 6

RePack

скачать торрент

Лицензия

скачать торрент

MVO

1

1 сезон

скачать торрент

1 сезон

скачать торрент

Лицензия

  

Девушка пробуждается / Girl Asleep (Розмари Майерс) [2015, комедия, семейный, фэнтези, BDRip 1080p ] VO

Девушка пробуждается через торрент piratbit.org

Размер: 7.56 GB | Добавлен: 5 лет 3 мес. назад | Торрент скачан:25 раз
Смотреть онлайн | Скачать   

08-08-2017 14:48 Девушка пробуждается Скачать торрент  

Название: Девушка пробуждается
Оригинальное название: Girl Asleep
Год выпуска: 2015
Страна: Австралия
Жанр: комедия, семейный, фэнтези
Продолжительность: 01:17:24
Перевод: любительский одноголосый

Режиссер: Розмари Майерс
В ролях: Бетани Витмор, Харрисон Фельдман, Эмбер МакМахон, Мэттью Уиттэт, Имон Фэррен, Тильда Кобэм-Херви, Имоджен Арчер, Катанзарити, Эллен Стил, Майя Стюардсон

Описание: Грете живётся непросто: её семья только переехала в новый город, где единственным другом девочки стал одноклассник Эллиотт, такой же чудик, как и она сама. К тому же, ей вот-вот исполнится пятнадцать, то есть откроются сверкающие врата в новую, взрослую жизнь, с которой Грета пока толком не понимает, что делать...



Качество: BDRip 1080p
Формат: MKV
Видео: MPEG-4 AVC, 12 Mбит/с, 1444x1080, 24 кадр/с
Аудио 1: русский, AC3, 448 kbps, 6 ch, 48 kHz [любительский одноголосый, Сэм Квинта]
Аудио 2: английский, DTS, 1509 kbps, 6 ch, 48 kHz [оригинал]
Субтитры 1: русские
Субтитры 2: английские
Имеются неименованные главы/чаптеры.
Общее
Уникальный идентификатор : 183046520160816594771859275139692351695 (0x89B57A3977446695A675E5EFBB1BD0CF)
Полное имя : D:\Video\Девушка пробуждается.2015.BDRip.1080p by msltel.mkv
Формат : Matroska
Версия формата : Version 4 / Version 2
Размер файла : 7,56 Гбайт
Продолжительность : 1 ч. 17 м.
Общий поток : 14,0 Мбит/сек
Название фильма : Rip by msltel
Дата кодирования : UTC 2017-08-08 06:37:35
Программа кодирования : mkvmerge v8.2.0 ('World of Adventure') 64bit
Библиотека кодирования : libebml v1.3.1 + libmatroska v1.4.2

Видео
Идентификатор : 1
Формат : AVC
Формат/Информация : Advanced Video Codec
Профиль формата : High@L4.1
Параметр CABAC формата : Да
Параметр ReFrames формата : 4 кадра
Идентификатор кодека : V_MPEG4/ISO/AVC
Продолжительность : 1 ч. 17 м.
Битрейт : 12,0 Мбит/сек
Ширина : 1444 пикселя
Высота : 1080 пикселей
Соотношение сторон : 4:3
Режим частоты кадров : Постоянный
Частота кадров : 24,000 кадра/сек
Цветовое пространство : YUV
Субдискретизация насыщенности : 4:2:0
Битовая глубина : 8 бит
Тип развёртки : Прогрессивная
Бит/(Пиксели*Кадры) : 0.321
Размер потока : 6,50 Гбайт (86%)
Библиотека кодирования : x264 core 146 r2538 121396c
Настройки программы : cabac=1 / ref=4 / deblock=1:-3:-2 / analyse=0x3:0x113 / me=umh / subme=11 / psy=1 / psy_rd=1.00:0.15 / mixed_ref=1 / me_range=32 / chroma_me=1 / trellis=2 / 8x8dct=1 / cqm=0 / deadzone=21,11 / fast_pskip=0 / chroma_qp_offset=-3 / threads=6 / lookahead_threads=1 / sliced_threads=0 / nr=0 / decimate=1 / interlaced=0 / bluray_compat=0 / constrained_intra=0 / bframes=10 / b_pyramid=2 / b_adapt=2 / b_bias=0 / direct=1 / weightb=1 / open_gop=0 / weightp=2 / keyint=230 / keyint_min=23 / scenecut=40 / intra_refresh=0 / rc_lookahead=40 / rc=crf / mbtree=0 / crf=17.8 / qcomp=0.60 / qpmin=0 / qpmax=69 / qpstep=4 / vbv_maxrate=62500 / vbv_bufsize=78125 / crf_max=0.0 / nal_hrd=none / filler=0 / ip_ratio=1.40 / pb_ratio=1.30 / aq=1:1.00
Язык : English
Default : Да
Forced : Нет

Аудио #1
Идентификатор : 2
Формат : AC-3
Формат/Информация : Audio Coding 3
Параметр Endianness формата : Big
Идентификатор кодека : A_AC3
Продолжительность : 1 ч. 17 м.
Вид битрейта : Постоянный
Битрейт : 448 Кбит/сек
Каналы : 6 каналов
Расположение каналов : Front: L C R, Side: L R, LFE
Частота : 48,0 КГц
Частота кадров : 31,250 кадров/сек (1536 spf)
Битовая глубина : 16 бит
Метод сжатия : С потерями
Размер потока : 248 Мбайт (3%)
Заголовок : любительский одноголосый, Сэм Квинта
Язык : Russian
ServiceKind/String : Complete Main
Default : Да
Forced : Нет

Аудио #2
Идентификатор : 3
Формат : DTS
Формат/Информация : Digital Theater Systems
Режим : 16
Параметр Endianness формата : Big
Идентификатор кодека : A_DTS
Продолжительность : 1 ч. 17 м.
Вид битрейта : Постоянный
Битрейт : 1509 Кбит/сек
Каналы : 6 каналов
Расположение каналов : Front: L C R, Side: L R, LFE
Частота : 48,0 КГц
Частота кадров : 93,750 кадра/сек (512 spf)
Битовая глубина : 16 бит
Метод сжатия : С потерями
Размер потока : 835 Мбайт (11%)
Заголовок : original
Язык : English
Default : Нет
Forced : Нет

Текст #1
Идентификатор : 4
Формат : UTF-8
Идентификатор кодека : S_TEXT/UTF8
Идентификатор кодека/Информация : UTF-8 Plain Text
Продолжительность : 1 ч. 13 м.
Битрейт : 70 бит/сек
ElementCount : 724
Размер потока : 38,3 Кбайт (0%)
Заголовок : русские
Язык : Russian
Default : Нет
Forced : Нет

Текст #2
Идентификатор : 5
Формат : UTF-8
Идентификатор кодека : S_TEXT/UTF8
Идентификатор кодека/Информация : UTF-8 Plain Text
Продолжительность : 1 ч. 17 м.
Битрейт : 56 бит/сек
ElementCount : 1377
Размер потока : 32,0 Кбайт (0%)
Заголовок : английские
Язык : English
Default : Нет
Forced : Нет

Меню
00:00:00.000 : en:Chapter 01
00:05:14.416 : en:Chapter 02
00:09:31.000 : en:Chapter 03
00:17:06.500 : en:Chapter 04
00:26:05.000 : en:Chapter 05
00:32:35.375 : en:Chapter 06
00:42:34.000 : en:Chapter 07
00:55:16.208 : en:Chapter 08
01:07:30.750 : en:Chapter 09
01:13:31.041 : en:Chapter 10



Скачать Девушка пробуждается через торрент http://s019.radikal.ru/i600/1708/f7/474da1909e62.jpg Скачать, смотреть онлайн Девушка пробуждается бесплантно в хорошем качестве Описание: Грете живётся непросто: её семья только переехала в новый город, где единственным другом девочки стал одноклассник Эллиотт, такой ... 9.5 10 4
Info! Золотая раздача, скачанное не засчитывается.
Торрент: Зарегистрирован [2017-08-08 14:48] · скачан: 25 раз
Статус: √ проверено
Размер: 7.56 GB
Как cкачать? Как скачать Девушка пробуждается через торрент | UTorrent

% Раздел Тема Автор DL S | L
Фильмы [HD 720p, 1080p] (Звук Cam, VO, DVO) [ 2.54 GB ] Девушка пробуждается / Girl Asleep | | 720p msltel Скачать
1 | 0

28-11-2019 20:33  


Отключить вcю реклaмy на сайте, в т.ч. и в плеере онлайн просмотра!

08-08-2017 15:49 Девушка пробуждается Скачать торрент  

Девушка пробуждается через торрент - это конечно сильное заявление.



    Дорогой пользователь! Огромная просьба, поблагодарите релизера, оцените раздачу и оставьте свои комментарий, если Вы скачали Девушка пробуждается через торрент бесплатно!!
    Комментировать посты могут только пользователи прошедшие не сложную регистрацию
    Показать сообщения:    


    Девушка пробуждается через торрент
    Скачать бесплатно Девушка пробуждается
    Девушка пробуждается скачать торрент
    Девушка пробуждается смотреть онлайн
    Cкачать фильм Девушка пробуждается бесплатно
    Девушка пробуждается скачать торрент в хорошем качестве
    Девушка пробуждается смотреть онлайн бесплатно в хорошем качестве
    Вы не можете начинать темы
    Вы не можете отвечать на сообщения
    Вы не можете редактировать свои сообщения
    Вы не можете удалять свои сообщения
    Вы не можете голосовать в опросах
    Вы не можете прикреплять файлы к сообщениям
    Вы можете скачивать файлы
    Девушка пробуждается / Girl Asleep [2015, комедия, семейный, фэнтези, BDRip 1080p ] VO смотреть онлайн, скачать торрент picoco.icu