1 сезон

3 сезон

iTunes

1

iTunes

DUB Netflix

iTunes

13

1 сезон

RePack

30

Deluxe

pack

Легкие деньги

ВАЖНО

ИГРА 18+

pack

RePack

MK11

RePack

jed

RePack

fifa19

RePack

RDR2

RePack

NEED FOR SPEED™ PAYBACK

4 сезон

9 сезон

Бесстыжие 9 сезон

Все сериалы

все сериалы на PB.wtf

RePack

FAR CRY 5

Anonymous, доброй ночи, мы не успеваем до 1 числа собрать деньги на оплату серверов, помогите нам пожалуйста в это трудное время. В качестве благодарности мы отключим Вам всю рекламу на сайте (укажите свой ник в строку Ваше имя)!

×
  
Magnet ссылка

Долгий путь Билли Линна в перерыве футбольного матча / Billy Lynn's Long Halftime Walk (Энг Ли) [2016, Драма, военный, экранизация, BDRip-AVC] MVO [Лицензия] piratbit.org

Долгий путь Билли Линна в перерыве футбольного матча через торрент piratbit.org

Размер: 2.7 GB | Добавлен: 3 года 10 мес. назад | Торрент скачан:102 раза
Скачать  

16-08-2017 18:23 Долгий путь Билли Линна в перерыве футбольного матча Скачать торрент  

Долгий путь Билли Линна в перерыве футбольного матча /
Billy Lynn's Long Halftime Walk
Год выпуска: 2016
Страна: США
Жанр: Драма, военный, экранизация
Продолжительность: 01:52:46
Перевод: Профессиональный многоголосый Лицензия
Субтитры: Русские, английские

Режиссер: Энг Ли

rating

В ролях:

Джо Элвин, Гаррет Хедлунд, Артуро Кастро, Мэйсон Ли, Астро, Бо Напп, Исмаэль Круз, Барни Харрис, Вин Дизель, Стив Мартин

Описание:

История о 19-летнем солдате Билли Линне и его взводе, который выживает в битве в Ираке. Во время боя они оказываются заснятыми на портативные новостные камеры, и из них вовсю лепят героев. Их привозят домой и отправляют в промо-тур, кульминацией которого становится шоу в перерыве футбольного матча в День благодарения. А после него они должны снова отправиться на войну.

Качество: BDRip-AVC
Формат: MKV
Видео кодек: H.264
Аудио кодек: AC3

Видео: 1024x552 (1.85:1), 23,976 fps, x264 ~2533 kbps avg, 0.187 bit/pixel
Аудио#1: 48 kHz, AC3 Dolby Digital, 3/2 (L,C,R,l,r) + LFE ch, ~448.00 kbps avg | RUS (Лицензия)
Аудио#2: 48 kHz, AC3 Dolby Digital, 3/2 (L,C,R,l,r) + LFE ch, ~448.00 kbps avg | ENG (Original)
скриншот   скриншот   скриншот   скриншот   скриншот  

Общее
Уникальный идентификатор : 171727299476628028685792603615311835303 (0x8131798EA92266CFA98397023E6E30A7)
Полное имя : D:Billy.Lynn's.Long.Halftime.Walk.2016.BDRip(AVC).OlLanDGroup.mkv
Формат : Matroska
Версия формата : Version 2
Размер файла : 2,70 Гбайт
Продолжительность : 1 ч. 52 м.
Общий поток : 3432 Кбит/сек
Название фильма : Billy.Lynn's.Long.Halftime.Walk.2016 #TorpedoUK#
Дата кодирования : UTC 2017-08-16 16:51:40
Программа кодирования : mkvmerge v7.8.0 ('River Man') 32bit built on Apr 3 2015 12:11:22
Библиотека кодирования : libebml v1.3.1 + libmatroska v1.4.2

Видео
Идентификатор : 1
Формат : AVC
Формат/Информация : Advanced Video Codec
Профиль формата : High@L4.1
Параметр CABAC формата : Да
Параметр ReFrames формата : 10 кадров
Идентификатор кодека : V_MPEG4/ISO/AVC
Продолжительность : 1 ч. 52 м.
Битрейт : 2533 Кбит/сек
Ширина : 1024 пикселя
Высота : 552 пикселя
Соотношение сторон : 1,85:1
Режим частоты кадров : Постоянный
Частота кадров : 23,976 (24000/1001) кадра/сек
Цветовое пространство : YUV
Субдискретизация насыщенности : 4:2:0
Битовая глубина : 8 бит
Тип развёртки : Прогрессивная
Бит/(Пиксели*Кадры) : 0.187
Размер потока : 1,94 Гбайт (72%)
Библиотека кодирования : x264 core 146 r2538 121396c
Настройки программы : cabac=1 / ref=10 / deblock=1:-3:-3 / analyse=0x3:0x133 / me=umh / subme=11 / psy=1 / psy_rd=1.00:0.07 / mixed_ref=1 / me_range=48 / chroma_me=1 / trellis=2 / 8x8dct=1 / cqm=0 / deadzone=21,11 / fast_pskip=0 / chroma_qp_offset=-3 / threads=6 / lookahead_threads=1 / sliced_threads=0 / nr=0 / decimate=0 / interlaced=0 / bluray_compat=0 / constrained_intra=0 / bframes=10 / b_pyramid=2 / b_adapt=2 / b_bias=0 / direct=3 / weightb=1 / open_gop=0 / weightp=2 / keyint=240 / keyint_min=23 / scenecut=40 / intra_refresh=0 / rc_lookahead=40 / rc=2pass / mbtree=0 / bitrate=2533 / ratetol=1.0 / qcomp=0.60 / qpmin=0 / qpmax=69 / qpstep=4 / cplxblur=20.0 / qblur=0.5 / vbv_maxrate=50000 / vbv_bufsize=62500 / nal_hrd=none / filler=0 / ip_ratio=1.40 / pb_ratio=1.30 / aq=1:1.00
Язык : English
Default : Да
Forced : Нет

Аудио #1
Идентификатор : 2
Формат : AC-3
Формат/Информация : Audio Coding 3
Расширение режима : CM (complete main)
Параметр Endianness формата : Big
Идентификатор кодека : A_AC3
Продолжительность : 1 ч. 52 м.
Вид битрейта : Постоянный
Битрейт : 448 Кбит/сек
Каналы : 6 каналов
Расположение каналов : Front: L C R, Side: L R, LFE
Частота : 48,0 КГц
Частота кадров : 31,250 кадров/сек (1536 spf)
Битовая глубина : 16 бит
Метод сжатия : С потерями
Размер потока : 361 Мбайт (13%)
Заголовок : License
Язык : Russian
Default : Да
Forced : Нет

Аудио #2
Идентификатор : 3
Формат : AC-3
Формат/Информация : Audio Coding 3
Расширение режима : CM (complete main)
Параметр Endianness формата : Big
Идентификатор кодека : A_AC3
Продолжительность : 1 ч. 52 м.
Вид битрейта : Постоянный
Битрейт : 448 Кбит/сек
Каналы : 6 каналов
Расположение каналов : Front: L C R, Side: L R, LFE
Частота : 48,0 КГц
Частота кадров : 31,250 кадров/сек (1536 spf)
Битовая глубина : 16 бит
Метод сжатия : С потерями
Размер потока : 361 Мбайт (13%)
Заголовок : Original
Язык : English
Default : Нет
Forced : Нет

Текст #1
Идентификатор : 4
Формат : UTF-8
Идентификатор кодека : S_TEXT/UTF8
Идентификатор кодека/Информация : UTF-8 Plain Text
Заголовок : Full
Язык : Russian
Default : Нет
Forced : Нет

Текст #2
Идентификатор : 5
Формат : UTF-8
Идентификатор кодека : S_TEXT/UTF8
Идентификатор кодека/Информация : UTF-8 Plain Text
Заголовок : Full
Язык : English
Default : Нет
Forced : Нет

Текст #3
Идентификатор : 6
Формат : UTF-8
Идентификатор кодека : S_TEXT/UTF8
Идентификатор кодека/Информация : UTF-8 Plain Text
Заголовок : SDH
Язык : English
Default : Нет
Forced : Нет

Меню
00:00:00.000 : en:00:00:00.000
00:06:05.865 : en:00:06:05.865
00:13:21.884 : en:00:13:21.884
00:20:11.293 : en:00:20:11.293
00:26:24.541 : en:00:26:24.541
00:31:10.410 : en:00:31:10.410
00:39:05.426 : en:00:39:05.426
00:48:51.929 : en:00:48:51.929
00:55:58.605 : en:00:55:58.605
01:04:18.354 : en:01:04:18.354
01:10:16.712 : en:01:10:16.712
01:17:14.630 : en:01:17:14.630
01:22:08.507 : en:01:22:08.507
01:29:13.265 : en:01:29:13.265
01:35:21.591 : en:01:35:21.591
01:42:52.458 : en:01:42:52.458

piratbit.org



Скачать Долгий путь Билли Линна в перерыве футбольного матча через торрент http://lostpix.com/img/2017-08/16/q8luq9cykda5hb7q67dijgfg5.jpg Скачать фильм Долгий путь Билли Линна в перерыве футбольного матча через торрент бесплантно в хорошем качестве Описание: История о 19-летнем солдате Билли Линне и его взводе, который выживает в битве в Ираке. Во время боя они оказываются заснятыми на ... 8 10 6
Info! Золотая раздача, скачанное не засчитывается.
Торрент: Зарегистрирован [2017-08-16 18:23] · скачан: 102 раз
Статус: √ проверено
Размер: 2.7 GB
Как cкачать? Как скачать Долгий путь Билли Линна в перерыве футбольного матча через торрент | UTorrent

28-11-2019 20:33  

Отключить всю рекламу на сайте

17-08-2017 12:28 Долгий путь Билли Линна в перерыве футбольного матча Скачать торрент  

Новое западно-ценностное "патриотическое кино". На этот раз от Энга Ли. "...Америка, Америка, превыше всего..."piratbit.org



    Дорогой пользователь! Огромная просьба, поблагодарите релизера, оцените раздачу и оставьте свои комментарий, если Вы скачали Долгий путь Билли Линна в перерыве футбольного матча через торрент бесплатно! Внесите свою лепту в развитие PiratBit!
    Комментировать посты могут только пользователи прошедшие не сложную регистрацию
    Показать сообщения:    

    Долгий путь Билли Линна в перерыве футбольного матча через торрент
    Скачать бесплатно Долгий путь Билли Линна в перерыве футбольного матча
    Долгий путь Билли Линна в перерыве футбольного матча скачать торрент
    Долгий путь Билли Линна в перерыве футбольного матча смотреть онлайн
    Cкачать фильм Долгий путь Билли Линна в перерыве футбольного матча бесплатно
    Долгий путь Билли Линна в перерыве футбольного матча скачать торрент в хорошем качестве
    Долгий путь Билли Линна в перерыве футбольного матча смотреть онлайн бесплатно в хорошем качестве


    Вы не можете начинать темы
    Вы не можете отвечать на сообщения
    Вы не можете редактировать свои сообщения
    Вы не можете удалять свои сообщения
    Вы не можете голосовать в опросах
    Вы не можете прикреплять файлы к сообщениям
    Вы можете скачивать файлы