Доктор Стрэндж

Лицензия

Добыча

MVO

Дом дракона

1 сезон

Тор

Лицензия

Мэверик

Лицензия

Там, где раки поют

MVO

Властелин колец

1 сезон

Ultimate

pack

Рекомендуем

30

Repack

ВАЖНО

ВАЖНО

Ghostwire

RePack

jed

RePack

nioh2

RePack

RDR2

RePack

NEED FOR SPEED™ PAYBACK

RePack

скачать торрент

Кинопоиск HD

Острые козырьки 6 сезон

6 сезон

FAR CRY 6

RePack

скачать торрент

Лицензия

скачать торрент

MVO

1

1 сезон

скачать торрент

1 сезон

скачать торрент

Лицензия

  

Игра престолов / Game of Thrones / Сезон 7 / Серии 1-7 из 7 (Джереми Подесва, Дэниэл Сакхайм, Джек Бендер) [2017, Драма, фэнтези, приключения, экранизация, WEB-DL 1080p] MVO [ColdFilm]

Игра престолов через торрент piratbit.org

Размер: 15.99 GB | Добавлен: 5 лет назад | Торрент скачан:166 раз
Смотреть онлайн Игра престолов | Скачать   

17-08-2017 07:00 Игра престолов Скачать торрент  

Игра престолов / Game of Thrones
Год выпуска: 2017
Страна: США, Великобритания
Жанр: Драма, фэнтези, приключения, экранизация
Продолжительность: 7 x ~ 00:56:00
Перевод: Любительский (многоголосый) ColdFilm
Субтитры: отсутствуют

Режиссер: Джереми Подесва, Дэниэл Сакхайм, Джек Бендер

rating

В ролях:

Шон Бин, Николай Костер-Валдау, Лина Хиди, Иэн Глен, Питер Динклэйдж, Джейсон Момоа, Эмилия Кларк, Мишель Фэйрли, Эйден Гиллен, Кит Харингтон, Марк Эдди, Элфи Оуэн-Аллен, Мэйси Уильямс, Софи Тёрнер, Джек Глисон, Айзек Хемпстед-Райт, Ричард Мэдден, Джером Флинн, Конлет Хилл, Дональд Самптер, Рори МакКанн, Рон Донаки, Джулиан Гловер

Описание:

«Игра престолов» новый сериал HBO, основанный на бестселлерах Джорджа Р.Р. Мартина. В мире, где лето и зимы длятся десятилетиями, на кону корона Вестероса. Предательство, похоть, интриги и сверхъестественные силы сотрясают все четыре стороны Королевства — от плетущего интриги юга, диких восточных земель, до замерзшего севера и древней Стены, что защищает королевство от тьмы за нею. Короли и королевы, рыцари и мятежники, лжецы и благородные люди борются за Влacть в кровавом сражении за Железный Трон. Экранизация по произведению: Джордж Р.Р. Мартин.

Качество: WEB-DL 1080p
Формат: MKV
Видео кодек: H.264
Аудио кодек: AC3

Видео: 5000 Кбит/с, 1920x1080, 23,976 fps
Аудио: Русский (AC3, 2 ch, 192 Кбит/с)
скриншот   скриншот   скриншот  

Общее
Уникальный идентификатор : 225036069358375022356462705794796132497 (0xA94C5ED61A5245C3B9EC1D2C76269891)
Полное имя : D:\Game of Thrones (Season 07) ColdFIlm 1080\Game.Of.Thrones.S07E01.1080p.WEB-DL.ColdFilm.mkv
Формат : Matroska
Версия формата : Version 2
Размер файла : 2,19 Гбайт
Продолжительность : 1 ч. 1 м.
Общий поток : 5095 Кбит/сек
Дата кодирования : UTC 2017-07-17 03:54:55 / UTC 2017-07-17 01:20:17
Программа кодирования : mkvmerge v3.3.0 ('Language') built on Mar 24 2010 14:59:24
Библиотека кодирования : libebml v0.8.0 + libmatroska v0.9.0 / Lavf54.63.104

Видео
Идентификатор : 1
Формат : AVC
Формат/Информация : Advanced Video Codec
Профиль формата : Main@L4
Параметр CABAC формата : Да
Параметр ReFrames формата : 1 кадр
Идентификатор кодека : V_MPEG4/ISO/AVC
Продолжительность : 1 ч. 1 м.
Битрейт : 5000 Кбит/сек
Ширина : 1920 пикселей
Высота : 1080 пикселей
Соотношение сторон : 16:9
Режим частоты кадров : Постоянный
Частота кадров : 23,976 (24000/1001) кадра/сек
Цветовое пространство : YUV
Субдискретизация насыщенности : 4:2:0
Битовая глубина : 8 бит
Тип развёртки : Прогрессивная
Бит/(Пиксели*Кадры) : 0.101
Размер потока : 2,06 Гбайт (94%)
Библиотека кодирования : x264 core 129
Настройки программы : cabac=1 / ref=1 / deblock=1:0:0 / analyse=0x1:0x131 / me=dia / subme=2 / psy=1 / psy_rd=1.00:0.00 / mixed_ref=0 / me_range=16 / chroma_me=1 / trellis=0 / 8x8dct=0 / cqm=0 / deadzone=21,11 / fast_pskip=1 / chroma_qp_offset=0 / threads=4 / lookahead_threads=1 / sliced_threads=0 / nr=0 / decimate=1 / interlaced=0 / bluray_compat=0 / constrained_intra=0 / bframes=0 / weightp=2 / keyint=250 / keyint_min=25 / scenecut=40 / intra_refresh=0 / rc_lookahead=40 / rc=abr / mbtree=1 / bitrate=5000 / ratetol=1.0 / qcomp=0.60 / qpmin=10 / qpmax=51 / qpstep=4 / ip_ratio=1.41 / aq=1:1.00
Default : Нет
Forced : Нет

Аудио
Идентификатор : 2
Формат : AC-3
Формат/Информация : Audio Coding 3
Расширение режима : CM (complete main)
Параметр Endianness формата : Big
Идентификатор кодека : A_AC3
Продолжительность : 1 ч. 1 м.
Вид битрейта : Постоянный
Битрейт : 192 Кбит/сек
Каналы : 2 канала
Расположение каналов : Front: L R
Частота : 48,0 КГц
Частота кадров : 31,250 кадров/сек (1536 spf)
Метод сжатия : С потерями
Размер потока : 84,5 Мбайт (4%)
Default : Да
Forced : Нет

Внимание! Раздача ведётся путём добавления новых серий; при каждом добавлении создаётся новый торрент. Чтобы начать докачку новой серии, пользователям необходимо сделать следующее:
(1) остановить скачивание,
(2) удалить старый торрент у себя из клиента (старые серии удалять не надо),
(3) скачать новый торрент и запустить его у себя в клиенте вместо старого, при этом указать клиенту путь в старую папку куда и должно происходить скачивание новых серий.
Ваш клиент при этом должен произвести хеширование (проверку) старой папки (если не производит сам - помогите ему сделать это), и будет докачивать только те серии которых у вас ещё нет. Старые серии при этом не удаляются, а продолжают раздаваться!
Eсли вы уже удалили старые серии, то предотвратить повторную закачку старых серий можно, отжав галочку в соответствующих местах при запуске нового торрента. По возможности, желательно не удалять старые серии как можно дольше чтобы релизёр не столько продолжал раздавать старые серии, а смог сконцентрироваться на новых.



Скачать Игра престолов через торрент http://i93.fastpic.ru/big/2017/0717/89/491529fef928423e97f652d6de211489.jpg Скачать, смотреть онлайн Игра престолов бесплантно в хорошем качестве Описание: «Игра престолов» новый сериал HBO, основанный на бестселлерах Джорджа Р.Р. Мартина. В мире, где лето и зимы длятся десятилетиями, ... 10 10 15
Торрент: Зарегистрирован [2017-09-20 07:05] · скачан: 166 раз
Статус: √ проверено
Размер: 15.99 GB
Как cкачать? Как скачать Игра престолов через торрент | UTorrent

% Раздел Тема Автор DL S | L
Игра престолов [ 1.024 TB ] Игра престолов / Game of Thrones / Сезон 1-7 / Серии 1-67 из 67 | MVO | 1080p sheker187 Скачать
1 | 0
Игра престолов [ 114.03 GB ] Игра престолов / Game of Thrones / Сезон 7 / Серии 1-7 из 7 | Amedia | 1080p bober100 Скачать
1 | 0
Игра престолов [ 13 GB ] Игра престолов / Game of Thrones / Сезон 7 / Серии 1-7 из 7 | | 720p bober100 Скачать
1 | 0



Последний раз редактировалось: bober100 (2017-09-20 07:05), всего редактировалось 1 раз

28-11-2019 20:33  

Отключить вcю реклaмy на сайте

17-08-2017 08:35 Игра престолов Скачать торрент  

Честно сворованная 6-я серия???) Качество не оч, но смотреть можно



17-08-2017 14:19 Игра престолов Скачать торрент  

озвучка сильно от амедии отличается?



17-08-2017 15:22 Игра престолов Скачать торрент  

AllainDM писал(а):

Честно сворованная 6-я серия???) Качество не оч, но смотреть можно

И почему хронометраж меньше? Должно быть 71 мин.



    Дорогой пользователь! Огромная просьба, поблагодарите релизера, оцените раздачу и оставьте свои комментарий, если Вы скачали Игра престолов через торрент бесплатно!!
    Комментировать посты могут только пользователи прошедшие не сложную регистрацию
    Показать сообщения:    


    Игра престолов через торрент
    Скачать бесплатно Игра престолов
    Игра престолов скачать торрент
    Игра престолов смотреть онлайн
    Cкачать фильм Игра престолов бесплатно
    Игра престолов скачать торрент в хорошем качестве
    Игра престолов смотреть онлайн бесплатно в хорошем качестве
    Вы не можете начинать темы
    Вы не можете отвечать на сообщения
    Вы не можете редактировать свои сообщения
    Вы не можете удалять свои сообщения
    Вы не можете голосовать в опросах
    Вы не можете прикреплять файлы к сообщениям
    Вы можете скачивать файлы