Доктор Стрэндж

Лицензия

Добыча

Дубляж

Дом дракона

1 сезон

Тор

Дубляж

В эфире

Дубляж

Там, где раки поют

MVO

Властелин колец

1 сезон

Ultimate

pack

Рекомендуем

30

Пиратка

ВАЖНО

ВАЖНО

Ghostwire

Пиратка

jed

RePack

nioh2

RePack

RDR2

RePack

NEED FOR SPEED™ PAYBACK

RePack

скачать торрент

Кинопоиск HD

Острые козырьки 6 сезон

6 сезон

FAR CRY 6

RePack

скачать торрент

Лицензия

скачать торрент

MVO

1

1 сезон

скачать торрент

1 сезон

скачать торрент

Лицензия

  

Несколько минут после полуночи / Minutes Past Midnight (Ли Кронин) [2016, Ужасы, Триллер, BDRip 1080p] VO [Xixidok]

Несколько минут после полуночи через торрент piratbit.org

Размер: 8.09 GB | Добавлен: 5 лет 3 мес. назад | Торрент скачан:112 раз
Смотреть онлайн | Скачать   

17-08-2017 19:08 Несколько минут после полуночи Скачать торрент  

Несколько минут после полуночи / Minutes Past Midnight
Год выпуска: 2016
Страна: Канада
Жанр: Ужасы, Триллер
Продолжительность: 01:38:05
Перевод: Любительский одноголосый Xixidok
Субтитры: английские

Режиссер: Ли Кронин

rating

В ролях:

Джейсон Флеминг, Барбара Стил, Мика Бурем, Оуэн МакДоннел, Стив Уолл, Артур Дарвилл.

Описание:

После полуночи на землю приходит ужас в самых разных своих проявлениях. Демоны, каннибалы, убийцы, призраки и монстры заполоняют мир в таких сверхъестественных, фантастичних и просто ужасных историях. В картине представлено девять мини-фильмов ужасов

Качество: BDRip 1080p
Формат: MKV
Видео кодек: H.264
Аудио кодек: AC3/DTS

Видео: AVC/H.264, 9653 Кбит/с, 1920x1080
Аудио#1: Русский (AC3, 6 ch, 640 Кбит/с)
Аудио#2: Английский (DTS, 6 ch, 1509 Кбит/с)

БЕЗ РЕКЛАМЫ.
скриншот   скриншот   скриншот   скриншот   скриншот  

общее
Уникальный идентификатор : 175887819174888647959075245508387489115 (0x8452C30406C48EFBA2553F26C45D455B)
Полное имя : E:MMMMMinutes.Past.Midnight.2016.1080p.BDRip.x264.mkv
Формат : Matroska
Версия формата : Version 4 / Version 2
Размер файла : 8,09 Гбайт
Продолжительность : 1 ч. 38 м.
Общий поток : 11,8 Мбит/сек
Дата кодирования : UTC 2017-08-17 15:37:59
Программа кодирования : mkvmerge v6.9.1 ('Blue Panther') 64bit built on Apr 18 2014 18:23:38
Библиотека кодирования : libebml v1.3.0 + libmatroska v1.4.1

Видео
Идентификатор : 1
Формат : AVC
Формат/Информация : Advanced Video Codec
Профиль формата : High@L4.1
Параметр CABAC формата : Да
Параметр ReFrames формата : 4 кадра
Идентификатор кодека : V_MPEG4/ISO/AVC
Продолжительность : 1 ч. 38 м.
Битрейт : 9653 Кбит/сек
Ширина : 1920 пикселей
Высота : 1080 пикселей
Соотношение сторон : 16:9
Режим частоты кадров : Постоянный
Частота кадров : 23,976 (24000/1001) кадра/сек
Цветовое пространство : YUV
Субдискретизация насыщенности : 4:2:0
Битовая глубина : 8 бит
Тип развёртки : Прогрессивная
Бит/(Пиксели*Кадры) : 0.194
Размер потока : 6,45 Гбайт (80%)
Библиотека кодирования : x264 core 152 r2851 ba24899
Настройки программы : cabac=1 / ref=4 / deblock=1:-3:-3 / analyse=0x3:0x113 / me=umh / subme=8 / psy=1 / psy_rd=1.00:0.25 / mixed_ref=1 / me_range=24 / chroma_me=1 / trellis=1 / 8x8dct=1 / cqm=0 / deadzone=21,11 / fast_pskip=1 / chroma_qp_offset=-4 / threads=30 / lookahead_threads=5 / sliced_threads=0 / nr=0 / decimate=1 / interlaced=0 / bluray_compat=0 / constrained_intra=0 / bframes=3 / b_pyramid=2 / b_adapt=1 / b_bias=0 / direct=3 / weightb=1 / open_gop=0 / weightp=2 / keyint=240 / keyint_min=24 / scenecut=40 / intra_refresh=0 / rc_lookahead=50 / rc=2pass / mbtree=1 / bitrate=9653 / ratetol=1.0 / qcomp=0.60 / qpmin=0 / qpmax=69 / qpstep=4 / cplxblur=20.0 / qblur=0.5 / ip_ratio=1.40 / aq=1:0.75
Default : Да
Forced : Нет

Аудио #1
Идентификатор : 2
Формат : AC-3
Формат/Информация : Audio Coding 3
Расширение режима : CM (complete main)
Параметр Endianness формата : Big
Идентификатор кодека : A_AC3
Продолжительность : 1 ч. 38 м.
Вид битрейта : Постоянный
Битрейт : 640 Кбит/сек
Каналы : 6 каналов
Расположение каналов : Front: L C R, Side: L R, LFE
Частота : 48,0 КГц
Частота кадров : 31,250 кадров/сек (1536 spf)
Метод сжатия : С потерями
Размер потока : 449 Мбайт (5%)
Заголовок : xixidoktor
Язык : Russian
Default : Да
Forced : Нет

Аудио #2
Идентификатор : 3
Формат : DTS
Формат/Информация : Digital Theater Systems
Режим : 16
Параметр Endianness формата : Big
Идентификатор кодека : A_DTS
Продолжительность : 1 ч. 38 м.
Вид битрейта : Постоянный
Битрейт : 1509 Кбит/сек
Каналы : 6 каналов
Расположение каналов : Front: L C R, Side: L R, LFE
Частота : 48,0 КГц
Частота кадров : 93,750 кадра/сек (512 spf)
Битовая глубина : 24 бит
Метод сжатия : С потерями
Размер потока : 1,03 Гбайт (13%)
Заголовок : original
Язык : English
Default : Нет
Forced : Нет

Текст
Идентификатор : 4
Формат : UTF-8
Идентификатор кодека : S_TEXT/UTF8
Идентификатор кодека/Информация : UTF-8 Plain Text
Язык : English
Default : Нет
Forced : Нет

Меню
00:00:00.000 : en:00:00:00.000
00:06:32.642 : en:00:06:32.642
00:15:16.249 : en:00:15:16.249
00:24:15.329 : en:00:24:15.329
00:36:48.415 : en:00:36:48.415
00:50:36.575 : en:00:50:36.575
01:06:14.721 : en:01:06:14.721
01:14:03.856 : en:01:14:03.856
01:29:00.752 : en:01:29:00.752
01:34:51.060 : en:01:34:51.060
01:38:04.879 : en:01:38:04.879




Скачать Несколько минут после полуночи через торрент http://s019.radikal.ru/i638/1708/8d/5079d6defee9.jpg Скачать, смотреть онлайн Несколько минут после полуночи бесплантно в хорошем качестве Описание: После полуночи на землю приходит ужас в самых разных своих проявлениях. Демоны, каннибалы, убийцы, призраки и монстры заполоняют ... 6.5 10 10
Торрент: Зарегистрирован [2017-08-17 19:08] · скачан: 112 раз
Статус: # сомнительно
Размер: 8.09 GB
Как cкачать? Как скачать Несколько минут после полуночи через торрент | UTorrent

% Раздел Тема Автор DL S | L
T Фильмы [HD 720p, 1080p] (Звук Cam, VO, DVO) [ 4.21 GB ] Несколько минут после полуночи / Minutes Past Midnight | | 720p PROCTOLOG Скачать
1 | 0

28-11-2019 20:33  


Отключить вcю реклaмy на сайте, в т.ч. и в плеере онлайн просмотра!

18-08-2017 03:08 Несколько минут после полуночи Скачать торрент  

с 1 ч. 14 мин центральный канал утерян. Голосов актеров нет, но есть перевод хихидока

Сомнительно



18-08-2017 03:18 Несколько минут после полуночи Скачать торрент  

Топик был перенесен из форума Фильмы 2016 (Звук TS, Cam, VO, DVO) в форум Фильмы [HD 720p, 1080p] (Звук Cam, VO, DVO)


Enigma2010



19-08-2017 16:21 Несколько минут после полуночи Скачать торрент  

что за говно, извините за подробности! шлак отстойный



    Дорогой пользователь! Огромная просьба, поблагодарите релизера, оцените раздачу и оставьте свои комментарий, если Вы скачали Несколько минут после полуночи через торрент бесплатно!!
    Комментировать посты могут только пользователи прошедшие не сложную регистрацию
    Показать сообщения:    


    Несколько минут после полуночи через торрент
    Скачать бесплатно Несколько минут после полуночи
    Несколько минут после полуночи скачать торрент
    Несколько минут после полуночи смотреть онлайн
    Cкачать фильм Несколько минут после полуночи бесплатно
    Несколько минут после полуночи скачать торрент в хорошем качестве
    Несколько минут после полуночи смотреть онлайн бесплатно в хорошем качестве
    Вы не можете начинать темы
    Вы не можете отвечать на сообщения
    Вы не можете редактировать свои сообщения
    Вы не можете удалять свои сообщения
    Вы не можете голосовать в опросах
    Вы не можете прикреплять файлы к сообщениям
    Вы можете скачивать файлы
    Несколько минут после полуночи / Minutes Past Midnight [2016, Ужасы, Триллер, BDRip 1080p] VO [Xixidok] смотреть онлайн, скачать торрент picoco.icu