Доктор Стрэндж

Лицензия

Добыча

Дубляж

Уэнсдэй

1 сезон

Тор

Дубляж

В эфире

Дубляж

Там, где раки поют

MVO

Властелин колец

1 сезон

Deluxe

pack

Рекомендуем

30

Пиратка

ВАЖНО

ВАЖНО

Ghostwire

Пиратка

jed

RePack

nioh2

RePack

RDR2

RePack

NEED FOR SPEED™ PAYBACK

RePack

скачать торрент

Кинопоиск HD

Острые козырьки 6 сезон

6 сезон

FAR CRY 6

RePack

скачать торрент

Лицензия

скачать торрент

MVO

1

1 сезон

скачать торрент

1 сезон

скачать торрент

Лицензия

  

Трансфигурация / The Transfiguration (Майкл О’Ши) [2016, ужасы, драма, BDRip 1080p ] VO

Трансфигурация через торрент piratbit.org

Размер: 10.92 GB | Добавлен: 5 лет 3 мес. назад | Торрент скачан:27 раз
Смотреть онлайн | Скачать   

27-08-2017 06:44 Трансфигурация Скачать торрент  

Название: Трансфигурация
Оригинальное название: The Transfiguration
Год выпуска: 2016
Страна: США
Жанр: ужасы, драма
Продолжительность: 01:37:20
Перевод: любительский одноголосый

Режиссер: Майкл О’Ши
В ролях: Эрик Руффин, Хлоя Ливайн, Джелли Бин, Данджелло Бонелли, Андреа Кордаро, Ларри Фессенден, Дэн Флаэрти, Анна Фридман, Хосе Игнасио Гомез, Джада Джарвис

Описание: Майло чернокожий «ботаник», живущий с братом в опасном квартале Нью-Йорка. Майло одержим вампирами и считает, что вампиром можно стать, если пить кровь людей. И на его счету уже несколько случайных жертв. Однажды в его дом заселяется белая девушка по имени Софи. Несмотря на нелюдимость Майло и его одержимость кровью, смертью и ужастиками о вампирах, она искренне заинтересовывается новым соседом. Но когда-нибудь она узнает его темный секрет...



Качество: BDRip 1080p
Формат: MKV
Видео: MPEG-4 AVC, 13,0 Мбит/сек, 1920х804, 23,976 fps
Аудио 1: русский, DTS, 1509 kbps, 6 ch, 48 kHz [любительский одноголосый, Василий Парижанин]
Аудио 2: английский, DTS, 1509 kbps, 6 ch, 48 kHz [оригинал]
Субтитры 1: русские (Lexandros)
Субтитры 2: английские
Имеются неименованные главы/чаптеры.
Общее
Уникальный идентификатор : 181139414631159704387845601041531038318 (0x88462EA98DE38C3FA7F842AD61546A6E)
Полное имя : D:\Video\Трансфигурация.2016.BDRip.1080p by msltel.mkv
Формат : Matroska
Версия формата : Version 4 / Version 2
Размер файла : 10,9 Гбайт
Продолжительность : 1 ч. 37 м.
Общий поток : 16,1 Мбит/сек
Название фильма : Rip by msltel
Дата кодирования : UTC 2017-08-27 04:11:22
Программа кодирования : mkvmerge v8.2.0 ('World of Adventure') 64bit
Библиотека кодирования : libebml v1.3.1 + libmatroska v1.4.2

Видео
Идентификатор : 1
Формат : AVC
Формат/Информация : Advanced Video Codec
Профиль формата : High@L4.1
Параметр CABAC формата : Да
Параметр RefFrames формата : 4 кадра
Идентификатор кодека : V_MPEG4/ISO/AVC
Продолжительность : 1 ч. 37 м.
Битрейт : 13,0 Мбит/сек
Ширина : 1920 пикселей
Высота : 804 пикселя
Соотношение сторон : 2,40:1
Режим частоты кадров : Постоянный
Частота кадров : 23,976 (24000/1001) кадра/сек
Цветовое пространство : YUV
Субдискретизация насыщенности : 4:2:0
Битовая глубина : 8 бит
Тип развёртки : Прогрессивная
Бит/(Пиксели*Кадры) : 0.352
Размер потока : 8,86 Гбайт (81%)
Библиотека кодирования : x264 core 146 r2538 121396c
Настройки программы : cabac=1 / ref=4 / deblock=1:-3:-2 / analyse=0x3:0x113 / me=umh / subme=11 / psy=1 / psy_rd=1.00:0.15 / mixed_ref=1 / me_range=32 / chroma_me=1 / trellis=2 / 8x8dct=1 / cqm=0 / deadzone=21,11 / fast_pskip=0 / chroma_qp_offset=-3 / threads=6 / lookahead_threads=1 / sliced_threads=0 / nr=0 / decimate=1 / interlaced=0 / bluray_compat=0 / constrained_intra=0 / bframes=15 / b_pyramid=2 / b_adapt=2 / b_bias=0 / direct=1 / weightb=1 / open_gop=0 / weightp=2 / keyint=230 / keyint_min=23 / scenecut=40 / intra_refresh=0 / rc_lookahead=40 / rc=crf / mbtree=0 / crf=17.4 / qcomp=0.60 / qpmin=0 / qpmax=69 / qpstep=4 / vbv_maxrate=62500 / vbv_bufsize=78125 / crf_max=0.0 / nal_hrd=none / filler=0 / ip_ratio=1.40 / pb_ratio=1.30 / aq=1:1.00
Язык : English
Default : Да
Forced : Нет

Аудио #1
Идентификатор : 2
Формат : DTS
Формат/Информация : Digital Theater Systems
Режим : 16
Параметр Endianness формата : Big
Идентификатор кодека : A_DTS
Продолжительность : 1 ч. 37 м.
Вид битрейта : Постоянный
Битрейт : 1509 Кбит/сек
Каналы : 6 каналов
Расположение каналов : Front: L C R, Side: L R, LFE
Частота : 48,0 КГц
Частота кадров : 93,750 кадра/сек (512 SPF)
Битовая глубина : 24 бит
Метод сжатия : С потерями
Размер потока : 1,03 Гбайт (9%)
Заголовок : любительский одноголосый, В. Парижанин
Язык : Russian
Default : Да
Forced : Нет

Аудио #2
Идентификатор : 3
Формат : DTS
Формат/Информация : Digital Theater Systems
Режим : 16
Параметр Endianness формата : Big
Идентификатор кодека : A_DTS
Продолжительность : 1 ч. 37 м.
Вид битрейта : Постоянный
Битрейт : 1509 Кбит/сек
Каналы : 6 каналов
Расположение каналов : Front: L C R, Side: L R, LFE
Частота : 48,0 КГц
Частота кадров : 93,750 кадра/сек (512 SPF)
Битовая глубина : 24 бит
Метод сжатия : С потерями
Размер потока : 1,03 Гбайт (9%)
Заголовок : original
Язык : English
Default : Нет
Forced : Нет

Текст #1
Идентификатор : 4
Формат : UTF-8
Идентификатор кодека : S_TEXT/UTF8
Идентификатор кодека/Информация : UTF-8 Plain Text
Продолжительность : 1 ч. 30 м.
Битрейт : 41 бит/сек
ElementCount : 617
Размер потока : 27,3 Кбайт (0%)
Заголовок : русские
Язык : Russian
Default : Нет
Forced : Нет

Текст #2
Идентификатор : 5
Формат : UTF-8
Идентификатор кодека : S_TEXT/UTF8
Идентификатор кодека/Информация : UTF-8 Plain Text
Продолжительность : 1 ч. 26 м.
Битрейт : 33 бит/сек
ElementCount : 682
Размер потока : 21,2 Кбайт (0%)
Заголовок : английские
Язык : English
Default : Нет
Forced : Нет

Меню
00:00:00.000 : en:00:00:00.000
00:09:34.616 : en:00:09:34.616
00:20:29.812 : en:00:20:29.812
00:29:10.791 : en:00:29:10.791
00:39:11.266 : en:00:39:11.266
00:50:05.294 : en:00:50:05.294
00:59:56.384 : en:00:59:56.384
01:12:05.029 : en:01:12:05.029
01:20:04.800 : en:01:20:04.800
01:32:23.747 : en:01:32:23.747



Скачать Трансфигурация через торрент http://s011.radikal.ru/i315/1708/bd/a54f9c786d27.jpg Скачать, смотреть онлайн Трансфигурация бесплантно в хорошем качестве Описание: Майло чернокожий «ботаник», живущий с братом в опасном квартале Нью-Йорка. Майло одержим вампирами и считает, что вампиром можно ... 5.5 10 4
Info! Золотая раздача, скачанное не засчитывается.
Торрент: Зарегистрирован [2017-08-27 06:44] · скачан: 27 раз
Статус: √ проверено
Размер: 10.92 GB
Как cкачать? Как скачать Трансфигурация через торрент | UTorrent

% Раздел Тема Автор DL S | L
T Релизы по Парсеру [Игры, Сериалы и Фильмы и другое...] [ 1.44 GB ] Трансфигурация / The Transfiguration | MVO | BDRip bober100 Скачать
1 | 0
# Фильмы [HD 720p, 1080p] (Хороший звук DUB, MVO) [ 2.83 GB ] Трансфигурация / The Transfiguration | MVO | 720p bober100 Скачать
1 | 0
Фильмы [HD 720p, 1080p] (Звук Cam, VO, DVO) [ 3.52 GB ] Трансфигурация / The Transfiguration | | 720p msltel Скачать
1 | 0

28-11-2019 20:33  


Отключить вcю реклaмy на сайте, в т.ч. и в плеере онлайн просмотра!

    Дорогой пользователь! Огромная просьба, поблагодарите релизера, оцените раздачу и оставьте свои комментарий, если Вы скачали Трансфигурация через торрент бесплатно!!
    Комментировать посты могут только пользователи прошедшие не сложную регистрацию
    Показать сообщения:    


    Трансфигурация через торрент
    Скачать бесплатно Трансфигурация
    Трансфигурация скачать торрент
    Трансфигурация смотреть онлайн
    Cкачать фильм Трансфигурация бесплатно
    Трансфигурация скачать торрент в хорошем качестве
    Трансфигурация смотреть онлайн бесплатно в хорошем качестве
    Вы не можете начинать темы
    Вы не можете отвечать на сообщения
    Вы не можете редактировать свои сообщения
    Вы не можете удалять свои сообщения
    Вы не можете голосовать в опросах
    Вы не можете прикреплять файлы к сообщениям
    Вы можете скачивать файлы
    Трансфигурация / The Transfiguration [2016, ужасы, драма, BDRip 1080p ] VO смотреть онлайн, скачать торрент picoco.icu