Доктор Стрэндж

Лицензия

Добыча

Дубляж

Уэнсдэй

1 сезон

Тор

Дубляж

В эфире

Дубляж

Там, где раки поют

MVO

Властелин колец

1 сезон

Deluxe

pack

Рекомендуем

30

Пиратка

ВАЖНО

ВАЖНО

Ghostwire

Пиратка

jed

RePack

nioh2

RePack

RDR2

RePack

NEED FOR SPEED™ PAYBACK

RePack

скачать торрент

Кинопоиск HD

Острые козырьки 6 сезон

6 сезон

FAR CRY 6

RePack

скачать торрент

Лицензия

скачать торрент

MVO

1

1 сезон

скачать торрент

1 сезон

скачать торрент

Лицензия

  

С первого взгляда / At First Sight (Ирвин Уинклер) [1999, мелодрама, драма, BDRip 1080p ] Дубляж, MVO, 2 x DVO

С первого взгляда через торрент piratbit.org

Размер: 14.41 GB | Добавлен: 5 лет 3 мес. назад | Торрент скачан:16 раз
Смотреть онлайн | Скачать   

28-08-2017 05:38 С первого взгляда Скачать торрент  

Название: С первого взгляда
Оригинальное название: At First Sight
Год выпуска: 1999
Страна: США
Жанр: мелодрама, драма
Продолжительность: 02:08:49
Перевод: дублированный, профессиональный многоголосый, профессиональный двухголосый

Режиссер: Ирвин Уинклер
В ролях: Вэл Килмер, Мира Сорвино, Келли МакГиллис, Стивен Вебер, Брюс Дэвисон, Нэтан Лейн, Кен Ховард, Лаура Кирк, Марго Уинклер, Дайана Кролл

Описание: Трогательная история встречи двух людей, живущих в разных мирах. Эми - энергичная молодая девушка-архитектор. Отдыхая на курорте, она завязывает несколько необычный роман со своим массажистом. Вирджил потерял зрение в раннем детстве и чувствует окружающий мир по-своему. Общаясь с ним, Эми открывает давно забытые, простые, как шум дождя радости, которых не замечает бОльшая часть человечества. Она словно начинает жить заново. С присущей ей целеустремленностью Эми находит возможность вернуть любимому человеку зрение и уговаривает Вирджила на рискованную операцию. Но вновь обретённый, видимый, мир нарушает его покой, разочаровывает и пугает... Фильм основан на реальных событиях, описанных в книге «To See And Not To See» американского невролога и нейропсихолога доктора Оливера Сакса.



Качество: BDRip 1080p
Формат: MKV
Видео: MPEG-4 AVC, 13.5 Mбит/с, 1918x1036
Аудио 1: русский, AC3, 192 kbps, 2 ch, 48 kHz [дублированный]
Аудио 2: русский, AC3, 192 kbps, 2 ch, 48 kHz [профессиональный многоголосый, OPT]
Аудио 3: русский, AC3, 448 kbps, 6 ch, 48 kHz [профессиональный двухголосый]
Аудио 4: русский, AC3, 192 kbps, 2 ch, 48 kHz [профессиональный двухголосый, HTB+]
Аудио 5: английский, DTS, 1509 kbps, 6 ch, 48 kHz [оригинал]
Субтитры: английские
Имеются неименованные главы/чаптеры.
Общее
Уникальный идентификатор : 215907964119072246219930007601108822555 (0xA26E5C804F734D06B1E69CEC9ECD2A1B)
Полное имя : D:\Video\С первого взгляда.1999.BDRip.1080p by msltel.mkv
Формат : Matroska
Версия формата : Version 4 / Version 2
Размер файла : 14,4 Гбайт
Продолжительность : 2 ч. 8 м.
Общий поток : 16,0 Мбит/сек
Название фильма : Rip by msltel
Дата кодирования : UTC 2017-08-28 02:07:58
Программа кодирования : mkvmerge v8.2.0 ('World of Adventure') 64bit
Библиотека кодирования : libebml v1.3.1 + libmatroska v1.4.2

Видео
Идентификатор : 1
Формат : AVC
Формат/Информация : Advanced Video Codec
Профиль формата : High@L4.1
Параметр CABAC формата : Да
Параметр RefFrames формата : 4 кадра
Идентификатор кодека : V_MPEG4/ISO/AVC
Продолжительность : 2 ч. 8 м.
Битрейт : 13,5 Мбит/сек
Ширина : 1918 пикселей
Высота : 1036 пикселей
Соотношение сторон : 1,85:1
Режим частоты кадров : Постоянный
Частота кадров : 23,976 (24000/1001) кадра/сек
Цветовое пространство : YUV
Субдискретизация насыщенности : 4:2:0
Битовая глубина : 8 бит
Тип развёртки : Прогрессивная
Бит/(Пиксели*Кадры) : 0.283
Размер потока : 12,1 Гбайт (84%)
Библиотека кодирования : x264 core 146 r2538 121396c
Настройки программы : cabac=1 / ref=4 / deblock=1:-3:-2 / analyse=0x3:0x113 / me=umh / subme=11 / psy=1 / psy_rd=1.00:0.15 / mixed_ref=1 / me_range=32 / chroma_me=1 / trellis=2 / 8x8dct=1 / cqm=0 / deadzone=21,11 / fast_pskip=0 / chroma_qp_offset=-3 / threads=6 / lookahead_threads=1 / sliced_threads=0 / nr=0 / decimate=1 / interlaced=0 / bluray_compat=0 / constrained_intra=0 / bframes=9 / b_pyramid=2 / b_adapt=2 / b_bias=0 / direct=1 / weightb=1 / open_gop=0 / weightp=2 / keyint=230 / keyint_min=23 / scenecut=40 / intra_refresh=0 / rc_lookahead=40 / rc=crf / mbtree=0 / crf=17.6 / qcomp=0.60 / qpmin=0 / qpmax=69 / qpstep=4 / vbv_maxrate=62500 / vbv_bufsize=78125 / crf_max=0.0 / nal_hrd=none / filler=0 / ip_ratio=1.40 / pb_ratio=1.30 / aq=1:1.00
Язык : English
Default : Да
Forced : Нет

Аудио #1
Идентификатор : 2
Формат : AC-3
Формат/Информация : Audio Coding 3
Параметр Endianness формата : Big
Идентификатор кодека : A_AC3
Продолжительность : 2 ч. 8 м.
Вид битрейта : Постоянный
Битрейт : 192 Кбит/сек
Каналы : 2 канала
Расположение каналов : Front: L R
Частота : 48,0 КГц
Частота кадров : 31,250 кадров/сек (1536 SPF)
Битовая глубина : 16 бит
Метод сжатия : С потерями
Размер потока : 177 Мбайт (1%)
Заголовок : Дубляж
Язык : Russian
ServiceKind/String : Complete Main
Default : Да
Forced : Нет

Аудио #2
Идентификатор : 3
Формат : AC-3
Формат/Информация : Audio Coding 3
Параметр Endianness формата : Big
Идентификатор кодека : A_AC3
Продолжительность : 2 ч. 8 м.
Вид битрейта : Постоянный
Битрейт : 192 Кбит/сек
Каналы : 2 канала
Расположение каналов : Front: L R
Частота : 48,0 КГц
Частота кадров : 31,250 кадров/сек (1536 SPF)
Битовая глубина : 16 бит
Метод сжатия : С потерями
Размер потока : 177 Мбайт (1%)
Заголовок : MVO (OPT)
Язык : Russian
ServiceKind/String : Complete Main
Default : Нет
Forced : Нет

Аудио #3
Идентификатор : 4
Формат : AC-3
Формат/Информация : Audio Coding 3
Параметр Endianness формата : Big
Идентификатор кодека : A_AC3
Продолжительность : 2 ч. 8 м.
Вид битрейта : Постоянный
Битрейт : 448 Кбит/сек
Каналы : 6 каналов
Расположение каналов : Front: L C R, Side: L R, LFE
Частота : 48,0 КГц
Частота кадров : 31,250 кадров/сек (1536 SPF)
Битовая глубина : 16 бит
Метод сжатия : С потерями
Размер потока : 413 Мбайт (3%)
Заголовок : DVO
Язык : Russian
ServiceKind/String : Complete Main
Default : Нет
Forced : Нет

Аудио #4
Идентификатор : 5
Формат : AC-3
Формат/Информация : Audio Coding 3
Параметр Endianness формата : Big
Идентификатор кодека : A_AC3
Продолжительность : 2 ч. 8 м.
Вид битрейта : Постоянный
Битрейт : 192 Кбит/сек
Каналы : 2 канала
Расположение каналов : Front: L R
Частота : 48,0 КГц
Частота кадров : 31,250 кадров/сек (1536 SPF)
Битовая глубина : 16 бит
Метод сжатия : С потерями
Размер потока : 177 Мбайт (1%)
Заголовок : DVO (HTB+)
Язык : Russian
ServiceKind/String : Complete Main
Default : Нет
Forced : Нет

Аудио #5
Идентификатор : 6
Формат : DTS
Формат/Информация : Digital Theater Systems
Режим : 16
Параметр Endianness формата : Big
Идентификатор кодека : A_DTS
Продолжительность : 2 ч. 8 м.
Вид битрейта : Постоянный
Битрейт : 1509 Кбит/сек
Каналы : 6 каналов
Расположение каналов : Front: L C R, Side: L R, LFE
Частота : 48,0 КГц
Частота кадров : 93,750 кадра/сек (512 SPF)
Битовая глубина : 24 бит
Метод сжатия : С потерями
Размер потока : 1,36 Гбайт (9%)
Заголовок : original
Язык : English
Default : Нет
Forced : Нет

Текст
Идентификатор : 7
Формат : UTF-8
Идентификатор кодека : S_TEXT/UTF8
Идентификатор кодека/Информация : UTF-8 Plain Text
Продолжительность : 2 ч. 2 м.
Битрейт : 60 бит/сек
ElementCount : 1570
Размер потока : 54,3 Кбайт (0%)
Заголовок : английские
Язык : English
Default : Нет
Forced : Нет

Меню
00:00:00.000 : :Chapter 01
00:15:22.254 : :Chapter 02
00:30:52.475 : :Chapter 03
00:48:19.980 : :Chapter 04
01:03:54.872 : :Chapter 05
01:18:27.994 : :Chapter 06
01:32:15.279 : :Chapter 07
01:51:04.157 : :Chapter 08
02:08:49.722 : :Chapter 09



Скачать С первого взгляда через торрент http://s019.radikal.ru/i604/1708/bb/6ba83d153724.jpg Скачать, смотреть онлайн С первого взгляда бесплантно в хорошем качестве Описание: Трогательная история встречи двух людей, живущих в разных мирах. Эми - энергичная молодая девушка-архитектор. Отдыхая на курорте, ... 10 10 1
Info! Золотая раздача, скачанное не засчитывается.
Торрент: Зарегистрирован [2017-08-28 05:38] · скачан: 16 раз
Статус: √ проверено
Размер: 14.41 GB
Как cкачать? Как скачать С первого взгляда через торрент | UTorrent

28-11-2019 20:33  


Отключить вcю реклaмy на сайте, в т.ч. и в плеере онлайн просмотра!

    Дорогой пользователь! Огромная просьба, поблагодарите релизера, оцените раздачу и оставьте свои комментарий, если Вы скачали С первого взгляда через торрент бесплатно!!
    Комментировать посты могут только пользователи прошедшие не сложную регистрацию
    Показать сообщения:    


    С первого взгляда через торрент
    Скачать бесплатно С первого взгляда
    С первого взгляда скачать торрент
    С первого взгляда смотреть онлайн
    Cкачать фильм С первого взгляда бесплатно
    С первого взгляда скачать торрент в хорошем качестве
    С первого взгляда смотреть онлайн бесплатно в хорошем качестве
    Вы не можете начинать темы
    Вы не можете отвечать на сообщения
    Вы не можете редактировать свои сообщения
    Вы не можете удалять свои сообщения
    Вы не можете голосовать в опросах
    Вы не можете прикреплять файлы к сообщениям
    Вы можете скачивать файлы
    С первого взгляда / At First Sight [1999, мелодрама, драма, BDRip 1080p ] Дубляж, MVO, 2 x DVO смотреть онлайн, скачать торрент picoco.icu