Лицензия

MVO

1

1 сезон

Лицензия

Лицензия

13

MVO

1 сезон

Deluxe Edition

pack

Рекомендуем

30

Repack

ВАЖНО

ВАЖНО

Ghostwire

RePack

jed

RePack

fifa19

RePack

RDR2

RePack

NEED FOR SPEED™ PAYBACK

RePack

Кинопоиск HD

 Острые козырьки 6 сезон

6 сезон

FAR CRY 6

RePack

Лицензия

MVO

1

1 сезон

1 сезон

Лицензия

  

Военная тайна (Мечислава Маевская) [1959, СССР, драма, SATRip от AVP Studio]

Военная тайна через торрент piratbit.org

Размер: 1.13 GB | Добавлен: 5 лет 1 мес. назад | Торрент скачан:18 раз
Смотреть онлайн Военная тайна | Скачать   

28-08-2017 09:23 Военная тайна Скачать торрент  

Военная тайна
Страна: СССР
Производство: Ялтинская киностудия

Жанр: драма
Год выпуска: 1959
Продолжительность: 01:24:24

Перевод: Не требуется
Cубтитры: нет
Оригинальная аудиодорожка: русский

Режиссер: Мечислава Маевская

В ролях:
Нина Антонова, Анатолий Федоринов, Сережа Остапенко, Алексей Грибов, Павел Усовниченко, Дмитрий Капка, А. Теремец, Николай Муравьёв (II), Касим Мухутдинов, Валерик Овчинников, Вова Смирнов, Витя Яремык-Федоров, Вова Кунин, Таня Батурова, Саша Зотов...
Об актёрах подробней

Описание:
По одноименной повести Аркадия Гайдара.
Натку, мечтающую стать капитаном, посылают на пионерскую работу. Она весьма серьезно относится к первому поручению - и получает путевку в Крым. В Артеке Натку просят подменить заболевшую пионервожатую. Девушка соглашается. Вскоре на строительстве водопровода прорывается плотина и начинается борьба за воду. В эту борьбу включается и инженер Ганин (Анатолий Федоринов), приехавший на отдых с маленьким сыном Алькой. В развалинах старой крепости Владик и Толик находят динамит. Чтобы выследить врагов, ребята перепрятывают взрывчатку и клянутся не раскрывать своей "военной тайны"...

Источник: DVB
Качество видео: SATRip
Формат видео: AVI

Видео: 704x528 (4:3), 25 fps, XviD ~ 1716 kbps avg, 0.185 bit/pixel
Аудио: 48 kHz, Dolby Digital AC3 2.0, 192 kbps

Раздача от:
Общее
Полное имя : Voennaya.tayna.1958.SATRip_[New-team]_by_AVP_Studio.avi
Формат : AVI
Формат/Информация : Audio Video Interleave
Размер файла : 1,13 Гбайт
Продолжительность : 1 ч. 24 м.
Общий поток : 1917 Кбит/сек
Программа кодирования : VirtualDubMod 1.5.10.3 | www.virtualdub-fr.org || (build 2550/release)
Библиотека кодирования : VirtualDubMod build 2550/release

Видео
Идентификатор : 0
Формат : MPEG-4 Visual
Профиль формата : Advanced Simple@L5
Параметр BVOP формата : 1
Параметр QPel формата : Нет
Параметр GMC формата : Без точки перехода
Параметр матрицы формата : Выборочная
Идентификатор кодека : XVID
Идентификатор кодека/Подсказка : XviD
Продолжительность : 1 ч. 24 м.
Битрейт : 1716 Кбит/сек
Ширина : 704 пикселя
Высота : 528 пикселей
Соотношение сторон : 4:3
Частота кадров : 25,000 кадров/сек
Цветовое пространство : YUV
Субдискретизация насыщенности : 4:2:0
Битовая глубина : 8 бит
Тип развёртки : Прогрессивная
Метод сжатия : С потерями
Бит/(Пиксели*Кадры) : 0.185
Размер потока : 1,01 Гбайт (89%)
Библиотека кодирования : XviD 73

Аудио
Идентификатор : 1
Формат : AC-3
Формат/Информация : Audio Coding 3
Параметр Endianness формата : Big
Идентификатор кодека : 2000
Продолжительность : 1 ч. 24 м.
Вид битрейта : Постоянный
Битрейт : 192 Кбит/сек
Каналы : 2 канала
Расположение каналов : Front: L R
Частота : 48,0 КГц
Частота кадров : 31,250 кадров/сек (1536 SPF)
Битовая глубина : 16 бит
Метод сжатия : С потерями
Размер потока : 116 Мбайт (10%)
Выравнивание : Разделение по промежуткам
Продолжительность промежутка : 40 мс. (1,00 видеокадр)
Время предзагрузки промежутка : 500 мс



Скачать Военная тайна через торрент http://s019.radikal.ru/i615/1708/5b/252ea5a08fef.png Скачать, смотреть онлайн Военная тайна бесплантно в хорошем качестве Описание:По одноименной повести Аркадия Гайдара.Натку, мечтающую стать капитаном, посылают на пионерскую работу. Она весьма серьезно ... 5 10 1
Info! Золотая раздача, скачанное не засчитывается.
Торрент: Зарегистрирован [2017-08-28 09:23] · скачан: 18 раз
Статус: √ проверено
Размер: 1.13 GB
Как cкачать? Как скачать Военная тайна через торрент | UTorrent

% Раздел Тема Автор DL S | L
Кино СССР [ 1.09 GB ] Военная тайна | | SATRip-AVC от AVP Studio AVP Studio Скачать
1 | 0
Кино СССР [ 745 MB ] Военная тайна | | SATRip от AVP Studio AVP Studio Скачать
1 | 0

28-11-2019 20:33  

Отключить вcю реклaмy на сайте

    Дорогой пользователь! Огромная просьба, поблагодарите релизера, оцените раздачу и оставьте свои комментарий, если Вы скачали Военная тайна через торрент бесплатно!!
    Комментировать посты могут только пользователи прошедшие не сложную регистрацию
    Показать сообщения:    


    Военная тайна через торрент
    Скачать бесплатно Военная тайна
    Военная тайна скачать торрент
    Военная тайна смотреть онлайн
    Cкачать фильм Военная тайна бесплатно
    Военная тайна скачать торрент в хорошем качестве
    Военная тайна смотреть онлайн бесплатно в хорошем качестве
    Вы не можете начинать темы
    Вы не можете отвечать на сообщения
    Вы не можете редактировать свои сообщения
    Вы не можете удалять свои сообщения
    Вы не можете голосовать в опросах
    Вы не можете прикреплять файлы к сообщениям
    Вы можете скачивать файлы