Доктор Стрэндж

Лицензия

Добыча

MVO

Дом дракона

1 сезон

Тор

Лицензия

Мэверик

Лицензия

Там, где раки поют

MVO

Властелин колец

1 сезон

Ultimate

pack

Рекомендуем

30

Repack

ВАЖНО

ВАЖНО

Ghostwire

RePack

jed

RePack

nioh2

RePack

RDR2

RePack

NEED FOR SPEED™ PAYBACK

RePack

скачать торрент

Кинопоиск HD

Острые козырьки 6 сезон

6 сезон

FAR CRY 6

RePack

скачать торрент

Лицензия

скачать торрент

MVO

1

1 сезон

скачать торрент

1 сезон

скачать торрент

Лицензия

  

Город зажигает огни (Владимир Венгеров) [1958, СССР, драма, SATRip-AVC от AVP Studio]

Город зажигает огни через торрент piratbit.org

Размер: 1.09 GB | Добавлен: 5 лет 1 мес. назад | Торрент скачан:29 раз
Смотреть онлайн Город зажигает огни | Скачать   

29-08-2017 10:10 Город зажигает огни Скачать торрент  

Город зажигает огни
Страна: СССР
Производство: Ленфильм

Жанр: драма
Год выпуска: 1958
Продолжительность: 01:31:21

Перевод: Не требуется
Cубтитры: нет
Оригинальная аудиодорожка: русский

Режиссер: Владимир Венгеров

В ролях:
Николай Погодин, Елена Добронравова, Олег Борисов, Лилиана Алешникова, Павел Усовниченко, Юрий Любимов, Александр Соколов, Валентин Грудинин, Борис Аракелов, Вячеслав Воронин, Алиса Фрейндлих...
Об актёрах подробней

Описание:
По мотивам повести Виктора Некрасова “В родном городе”.
Бывший фронтовой разведчик капитан Николай Митясов (Николай Погодин) после ранения возвращается в разрушенный город и узнает невесёлые новости: его жена Шура изменила ему. Горечь и растерянность сменили надежду. Но наступил мир, началась демобилизация, надо восстанавливать родину. Николай находит в себе силы продолжать жить, поступает в строительный институт, знакомится с Валей (Елена Добронравова) и начинает новую счастливую жизнь без войны...

Источник: DVB
Качество видео: SATRip-AVC
Формат видео: MKV

Видео: 688->760x570 (4:3), 25 fps, H264 ~ 1512 kbps avg, 0.154 bit/pixel
Аудио: 48 kHz, Dolby Digital AC3 2.0, 192 kbps

Раздача от:
Общее
Полное имя : Gorod.zazhigaet.ogni.1958.SATRip-AVC_[New-team]_by_AVP_Studio.mkv
Формат : Matroska
Версия формата : Version 2
Размер файла : 1,09 Гбайт
Продолжительность : 1 ч. 31 м.
Общий поток : 1706 Кбит/сек
Дата кодирования : UTC 2017-08-25 15:34:51
Программа кодирования : mkvmerge v6.1.0 ('Old Devil') built on Mar 4 2013 09:10:42
Библиотека кодирования : libebml v1.3.0 + libmatroska v1.4.0

Видео
Идентификатор : 1
Формат : AVC
Формат/Информация : Advanced Video Codec
Профиль формата : High@L4.1
Параметр CABAC формата : Да
Параметр RefFrames формата : 10 кадров
Идентификатор кодека : V_MPEG4/ISO/AVC
Продолжительность : 1 ч. 31 м.
Битрейт : 1512 Кбит/сек
Ширина : 688 пикселей
Высота : 570 пикселей
Соотношение сторон : 4:3
Режим частоты кадров : Постоянный
Частота кадров : 25,000 кадров/сек
Цветовое пространство : YUV
Субдискретизация насыщенности : 4:2:0
Битовая глубина : 8 бит
Тип развёртки : Прогрессивная
Бит/(Пиксели*Кадры) : 0.154
Размер потока : 967 Мбайт (87%)
Библиотека кодирования : x264 core 130 r2273 b3065e6
Настройки программы : cabac=1 / ref=10 / deblock=1:-2:-1 / analyse=0x3:0x113 / me=umh / subme=10 / psy=1 / psy_rd=1.00:0.00 / mixed_ref=1 / me_range=32 / chroma_me=1 / trellis=2 / 8x8dct=1 / cqm=0 / deadzone=21,11 / fast_pskip=1 / chroma_qp_offset=-2 / threads=6 / lookahead_threads=1 / sliced_threads=0 / nr=0 / decimate=0 / interlaced=0 / bluray_compat=0 / constrained_intra=0 / bframes=8 / b_pyramid=2 / b_adapt=2 / b_bias=0 / direct=3 / weightb=1 / open_gop=0 / weightp=2 / keyint=250 / keyint_min=25 / scenecut=40 / intra_refresh=0 / rc=2pass / mbtree=0 / bitrate=1512 / ratetol=1.0 / qcomp=0.60 / qpmin=0 / qpmax=69 / qpstep=4 / cplxblur=20.0 / qblur=0.5 / ip_ratio=1.40 / pb_ratio=1.30 / aq=1:1.00
Default : Да
Forced : Нет

Аудио
Идентификатор : 2
Формат : AC-3
Формат/Информация : Audio Coding 3
Параметр Endianness формата : Big
Идентификатор кодека : A_AC3
Продолжительность : 1 ч. 31 м.
Вид битрейта : Постоянный
Битрейт : 192 Кбит/сек
Каналы : 2 канала
Расположение каналов : Front: L R
Частота : 48,0 КГц
Частота кадров : 31,250 кадров/сек (1536 SPF)
Битовая глубина : 16 бит
Метод сжатия : С потерями
Размер потока : 125 Мбайт (11%)
Default : Да
Forced : Нет



Скачать Город зажигает огни через торрент http://s019.radikal.ru/i618/1708/d8/27637741cba9.png Скачать, смотреть онлайн Город зажигает огни бесплантно в хорошем качестве Описание:По мотивам повести Виктора Некрасова “В родном городе”.Бывший фронтовой разведчик капитан Николай Митясов (Николай Погодин) после ... 10 10 3
Info! Золотая раздача, скачанное не засчитывается.
Торрент: Зарегистрирован [2017-08-29 10:10] · скачан: 29 раз
Статус: √ проверено
Размер: 1.09 GB
Как cкачать? Как скачать Город зажигает огни через торрент | UTorrent

% Раздел Тема Автор DL S | L
Кино СССР [ 745 MB ] Город зажигает огни | | SATRip от AVP Studio AVP Studio Скачать
1 | 0
Кино СССР [ 1.09 GB ] Город зажигает огни | | SATRip от AVP Studio AVP Studio Скачать
1 | 0

28-11-2019 20:33  

Отключить вcю реклaмy на сайте

    Дорогой пользователь! Огромная просьба, поблагодарите релизера, оцените раздачу и оставьте свои комментарий, если Вы скачали Город зажигает огни через торрент бесплатно!!
    Комментировать посты могут только пользователи прошедшие не сложную регистрацию
    Показать сообщения:    


    Город зажигает огни через торрент
    Скачать бесплатно Город зажигает огни
    Город зажигает огни скачать торрент
    Город зажигает огни смотреть онлайн
    Cкачать фильм Город зажигает огни бесплатно
    Город зажигает огни скачать торрент в хорошем качестве
    Город зажигает огни смотреть онлайн бесплатно в хорошем качестве
    Вы не можете начинать темы
    Вы не можете отвечать на сообщения
    Вы не можете редактировать свои сообщения
    Вы не можете удалять свои сообщения
    Вы не можете голосовать в опросах
    Вы не можете прикреплять файлы к сообщениям
    Вы можете скачивать файлы