2 сезон

iTunes

WEBRip

1

2 сезон

iTunes

1 сезон

1 сезон

RePack

30

Ultimate

ВАЖНО

ИГРА 18+

pack

RePack

MK11
pack

Легкие деньги

RePack

jed

RePack

fifa19

RePack

RDR2

RePack

NEED FOR SPEED™ PAYBACK

4 сезон

9 сезон

Бесстыжие 9 сезон

Все сериалы

все сериалы на PB.wtf

RePack

FAR CRY 5

Anonymous, доброе утро, мы не успеваем собрать деньги на оплату серверов за февраль, помогите нам пожалуйста в это трудное время. В качестве благодарности мы отключим Вам всю рекламу на сайте (укажите свой ник в строку Ваше имя)!

×
  
Magnet ссылка

Чудо-женщина / Wonder Woman (Пэтти Дженкинс) [2017, Фантастика, Фэнтези, Боевик, Приключения, WEB-DL 720p] [Ukr DUB] [Лицензия / iTunes] piratbit.org

Чудо-женщина через торрент piratbit.org

Размер: 4.57 GB | Добавлен: 3 года 6 мес. назад | Торрент скачан:229 раз
Скачать  

30-08-2017 07:02 Чудо-женщина Скачать торрент  

Чудо-женщина / Wonder Woman
Год выпуска фильма: 2017
Страна: США
Жанр: Фантастика, Фэнтези, Боевик, Приключения
Продолжительность: 02:21:12
Перевод: Украинский (дублированный) [Лицензия / iTunes]
Субтитры: Украинские, английские

Режиссер: Пэтти Дженкинс

В ролях: Галь Гадот, Крис Пайн, Робин Райт, Конни Нильсен, Елена Анайя, Люси Дэвис, Юэн Бремнер

Описание:
Перед тем как стать Чудо-Женщиной, она была Дианой — принцессой амазонок, обученной быть непобедимой воительницей.
И когда на берегах огражденного от внешнего мира райского острова, который служил ей родиной, терпит крушение американский пилот
и рассказывает о серьезном конфликте, бушующем во внешнем мире, Диана покидает свой дом, чтобы справиться с этой угрозой.
И там, сражаясь бок о бок с человеком в войне за мир, Диана обнаружит всю полноту своей власти… и свое истинное предназначение.



Качество: WEB-DL [720p]
Формат видео: MKV
Видео кодек: AVC
Аудио кодек: AC3
Видео: MPEG-4 AVC, 4051 Кбит/с, 1280x530, 23.976 fps
Аудио: AC3, 192 Kbps, 48.0 KHz, 2 ch - Ukr DUB
Аудио: AC3, 384 Kbps, 48.0 KHz, 6 ch - ENG
General
Unique ID : 215246572123753799179207855464616768546 (0xA1EEFB5BB3421E5FB7819D4E86673422)
Complete name : E:\Wonder Woman (2017) WEB-DL 720p [UKR_ENG] [Hurtom].mkv
Format : Matroska
Format version : Version 4 / Version 2
File size : 4.57 GiB
Duration : 2h 21mn
Overall bit rate : 4 630 Kbps
Encoded date : UTC 2017-08-30 04:16:57
Writing application : mkvmerge v14.0.0 ('Flow') 64bit
Writing library : libebml v1.3.4 + libmatroska v1.4.5
Attachements : cover

Video
ID : 1
Format : AVC
Format/Info : Advanced Video Codec
Format profile : Main@L3.1
Format settings, CABAC : No
Format settings, ReFrames : 2 frames
Codec ID : V_MPEG4/ISO/AVC
Duration : 2h 21mn
Bit rate : 3 962 Kbps
Width : 1 280 pixels
Height : 530 pixels
Display aspect ratio : 2.40:1
Frame rate mode : Constant
Frame rate : 23.976 fps
Color space : YUV
Chroma subsampling : 4:2:0
Bit depth : 8 bits
Scan type : Progressive
Bits/(Pixel*Frame) : 0.244
Stream size : 3.91 GiB (86%)
Language : English
Default : Yes
Forced : No
Color range : Limited
Color primaries : BT.709
Transfer characteristics : BT.709
Matrix coefficients : BT.709

Audio #1
ID : 2
Format : AC-3
Format/Info : Audio Coding 3
Mode extension : CM (complete main)
Format settings, Endianness : Big
Codec ID : A_AC3
Duration : 2h 21mn
Bit rate mode : Constant
Bit rate : 192 Kbps
Channel(s) : 2 channels
Channel positions : Front: L R
Sampling rate : 48.0 KHz
Compression mode : Lossy
Stream size : 194 MiB (4%)
Title : AC3 2.0 @ 192 kbps
Language : Ukrainian
Default : Yes
Forced : Yes

Audio #2
ID : 3
Format : AC-3
Format/Info : Audio Coding 3
Mode extension : CM (complete main)
Format settings, Endianness : Big
Codec ID : A_AC3
Duration : 2h 21mn
Bit rate mode : Constant
Bit rate : 384 Kbps
Channel(s) : 6 channels
Channel positions : Front: L C R, Side: L R, LFE
Sampling rate : 48.0 KHz
Compression mode : Lossy
Stream size : 388 MiB (8%)
Title : AC3 5.1 @ 384 kbps
Language : English
Default : No
Forced : No

Text #1
ID : 4
Format : UTF-8
Codec ID : S_TEXT/UTF8
Codec ID/Info : UTF-8 Plain Text
Title : Forced
Language : Ukrainian
Default : Yes
Forced : Yes

Text #2
ID : 5
Format : UTF-8
Codec ID : S_TEXT/UTF8
Codec ID/Info : UTF-8 Plain Text
Title : Full
Language : English
Default : No
Forced : No

Menu
00:00:00.000 : en:1
00:10:24.000 : en:2
00:23:10.000 : en:3
00:33:08.000 : en:4
00:43:53.000 : en:5
00:54:23.000 : en:6
01:07:36.000 : en:7
01:22:28.000 : en:8
01:34:00.000 : en:9
01:45:35.000 : en:10
01:57:41.000 : en:11
02:10:38.000 : en:12
piratbit.org



Скачать Чудо-женщина через торрент http://i94.fastpic.ru/big/2017/0606/fa/e210219d7b0bd7586055aa132394fbfa.jpg Скачать фильм Чудо-женщина через торрент бесплантно в хорошем качестве Описание:Перед тем как стать Чудо-Женщиной, она была Дианой — принцессой амазонок, обученной быть непобедимой воительницей.И когда на ... 9.3 10 13
Info! Золотая раздача, скачанное не засчитывается.
Торрент: Зарегистрирован [2017-08-30 07:02] · скачан: 229 раз
Статус: √ проверено
Размер: 4.57 GB
Как cкачать? Как скачать Чудо-женщина через торрент | UTorrent

% Раздел Тема Автор DL S | L
Фильмы (WEB-DL 720p, 1080p) [ 11.64 GB ] Чудо-женщина: 1984 / Wonder Woman 1984 [2020 WEB-DL 1080p ] DUB [Мосфильм-Мастер] bober100 Скачать
19 | 0
Ultra HD (UHD: 2K, 4K, 8K) — видео сверхвысокой чёткости [ 20.2 GB ] Чудо-женщина: 1984 / Wonder Woman 1984 [2020 WEB-DL-HEVC 2160p ] MVO [HDRezka Studio] bober100 Скачать
16 | 0
Фильмы 2019-2020 [DVDrip, WEB-DLRip, HDrip] (DUB, MVO) [ 1.46 GB ] Чудо-женщина: 1984 / Wonder Woman 1984 [2020 WEB-DLRip] - [Мосфильм-Мастер] Twi7ter Скачать
221 | 5
Фильмы 2019-2020 [DVDrip, WEB-DLRip, HDrip] (DUB, MVO) [ 2.18 GB ] Чудо-женщина: 1984 / Wonder Woman 1984 [2020 WEB-DLRip] - [Мосфильм-Мастер] Twi7ter Скачать
127 | 15
Фильмы (WEB-DL 720p, 1080p) [ 5.56 GB ] Чудо-женщина: 1984 / Wonder Woman 1984 [2020 WEB-DL 720p ] DUB [Мосфильм-Мастер] bober100 Скачать
15 | 0
Фильмы 2019-2020 [DVDrip, WEB-DLRip, HDrip] (DUB, MVO) [ 1.46 GB ] Чудо-женщина: 1984 / Wonder Woman 1984 [2020 WEB-DLRip ] DUB [Мосфильм-Мастер] bober100 Скачать
4 | 0
Фильмы 2019-2020 [DVDrip, WEB-DLRip, HDrip] (DUB, MVO) [ 2.18 GB ] Чудо-женщина: 1984 / Wonder Woman 1984 [2020 WEB-DLRip] Dub [IMAX Edition] Russian Mafia Скачать
2 | 0

28-11-2019 20:33  

Отключить всю рекламу на сайте

    Дорогой пользователь! Огромная просьба, поблагодарите релизера, оцените раздачу и оставьте свои комментарий, если Вы скачали Чудо-женщина через торрент бесплатно! Внесите свою лепту в развитие PiratBit!
    Комментировать посты могут только пользователи прошедшие не сложную регистрацию
    Показать сообщения:    

    Чудо-женщина через торрент
    Скачать бесплатно Чудо-женщина
    Чудо-женщина скачать торрент
    Чудо-женщина смотреть онлайн
    Cкачать фильм Чудо-женщина бесплатно
    Чудо-женщина скачать торрент в хорошем качестве
    Чудо-женщина смотреть онлайн бесплатно в хорошем качестве


    Вы не можете начинать темы
    Вы не можете отвечать на сообщения
    Вы не можете редактировать свои сообщения
    Вы не можете удалять свои сообщения
    Вы не можете голосовать в опросах
    Вы не можете прикреплять файлы к сообщениям
    Вы можете скачивать файлы