1 сезон

3 сезон

iTunes

1

iTunes

DUB Netflix

iTunes

13

1 сезон

RePack

30

Deluxe

pack

Легкие деньги

ВАЖНО

ИГРА 18+

pack

RePack

MK11

RePack

jed

RePack

fifa19

RePack

RDR2

RePack

NEED FOR SPEED™ PAYBACK

4 сезон

9 сезон

Бесстыжие 9 сезон

Все сериалы

все сериалы на PB.wtf

RePack

FAR CRY 5

Anonymous, добрый день, мы не успеваем до 1 числа собрать деньги на оплату серверов, помогите нам пожалуйста в это трудное время. В качестве благодарности мы отключим Вам всю рекламу на сайте (укажите свой ник в строку Ваше имя)!

×
  
Magnet ссылка

Ольга / Сезон: 2 / Серии 1-20 из 20 (Алексей Нужный, Игорь Волошин) [2017 г., комедия, WEB-DLRip] piratbit.org

Ольга через торрент piratbit.org

Размер: 5.88 GB | Добавлен: 3 года 8 мес. назад | Торрент скачан:459 раз
Скачать  

04-09-2017 23:41 Ольга Скачать торрент  

Ольга
  • Год выпуска: 2017
  • Страна: Россия
  • Жанр: комедия
  • Продолжительность: ~ 00:26:00 (Серия)
  • Перевод: Не требуется
  • Режиссер: Алексей Нужный, Игорь Волошин


  • В ролях:
    Яна Троянова, Василий Кортуков, Алина Алексеева, Мухаммед Абу-Ризик, Алина Алексеева (II), Василий Кортуков, Максим Костромыкин, Филипп Ершов, Александр Шам, Светлана Костюкова, Ирина Цывина, Сергей Гусенков



  • Главная героиня воспитывает двух детей от разных браков, заботится об отце-алкоголике и пытается наладить личную жизнь. Старшая дочь Анька учится в ПТУ, думает, что она единственный адекватный член семьи и в её жизни все будет по-другому, младший сын Тимофей, чей отец вернулся к первой семье в Азербайджан, считает, что он уже мужчина, хотя ему всего лишь 11 лет, отец Ольги, бывший футболист, крепко выпивает и постоянно врет, а сестра Ленка пытается жить за счет мужчин, в основном — женатых. Вечно спасая родственников от неприятностей, Ольга живет чужой жизнью и редко думает о себе — до тех пор, пока в нее не влюбляется молодой и положительный водитель газели «Ритуал» Гриша.

  • Качество: WEB-DLRip
  • Формат: : AVI
  • Видео кодек: XviD
  • Аудио кодек: AC-3

  • Видео: 1592 Кбит/сек, 720*400 (16:9), в 25,000 кадров/сек, MPEG-4 Visual (XviD)
  • Аудио №1: 192 Кбит/сек, 48,0 КГц, 16 бит, 2 канала, AC-3
  • Релиз от: Files-x
    Общее
    Полное имя : F:\Olga.2017.WEB-DLRip.Files-x\02.Olga.2017.WEB-DLRip.Files-x.avi
    Формат : AVI
    Формат/Информация : Audio Video Interleave
    Размер файла : 317 Мбайт
    Продолжительность : 24 м. 42 с.
    Общий поток : 1794 Кбит/сек
    Программа кодирования : VirtualDubMod 1.5.10.3 | www.virtualdub-fr.org || (build 2550/release)
    Библиотека кодирования : VirtualDubMod build 2550/release

    Видео
    Идентификатор : 0
    Формат : MPEG-4 Visual
    Профиль формата : Advanced Simple@L5
    Параметр BVOP формата : 1
    Параметр QPel формата : Нет
    Параметр GMC формата : Без точки перехода
    Параметр матрицы формата : Выборочная
    Идентификатор кодека : XVID
    Идентификатор кодека/Подсказка : XviD
    Продолжительность : 24 м. 42 с.
    Битрейт : 1592 Кбит/сек
    Ширина : 720 пикселей
    Высота : 400 пикселей
    Соотношение сторон : 16:9
    Частота кадров : 25,000 кадров/сек
    Цветовое пространство : YUV
    Субдискретизация насыщенности : 4:2:0
    Битовая глубина : 8 бит
    Тип развёртки : Прогрессивная
    Метод сжатия : С потерями
    Бит/(Пиксели*Кадры) : 0.221
    Размер потока : 281 Мбайт (89%)
    Библиотека кодирования : XviD 73

    Аудио
    Идентификатор : 1
    Формат : AC-3
    Формат/Информация : Audio Coding 3
    Параметр Endianness формата : Big
    Идентификатор кодека : 2000
    Продолжительность : 24 м. 42 с.
    Вид битрейта : Постоянный
    Битрейт : 192 Кбит/сек
    Каналы : 2 канала
    Расположение каналов : Front: L R
    Частота : 48,0 КГц
    Частота кадров : 31,250 кадров/сек (1536 SPF)
    Битовая глубина : 16 бит
    Метод сжатия : С потерями
    Размер потока : 33,9 Мбайт (11%)
    Выравнивание : Разделение по промежуткам
    Продолжительность промежутка : 40 мс. (1,00 видеокадр)
    Время предзагрузки промежутка : 500 мс.
    ServiceKind/String : Complete Main
    Скриншоты:
    скриншот   скриншот   скриншот   скриншот   скриншот   скриншот   скриншот  
    скриншот  

    Раздача ведётся путём добавления новых серий. Добавлена 20 серия (05.10.2017).Просьба перекачать торрент файл.

    piratbit.org



  • Скачать Ольга через торрент https://st.kp.yandex.net/images/film_iphone/iphone360_940680.jpg Скачать фильм Ольга через торрент бесплантно в хорошем качестве qw.png Главная героиня воспитывает двух детей от разных браков, заботится об отце-алкоголике и пытается наладить личную жизнь. Старшая ... 10 10 28
    Info! Золотая раздача, скачанное не засчитывается.
    Торрент: Зарегистрирован [2017-10-05 09:16] · скачан: 459 раз
    Статус: √ проверено
    Размер: 5.88 GB
    Как cкачать? Как скачать Ольга через торрент | UTorrent

    % Раздел Тема Автор DL S | L
    Наши сериалы [ 5.2 GB ] А у нас во дворе / Сезон-2 / Серии: 1-8 из 8 [2019 SATRip-AVC] aleksan55 Скачать
    1 | 0
    Наши сериалы [ 10.73 GB ] А у нас во дворе / Сезон: 2 / Серии: 1-8 из 8 [2019 HDTVRip 720p] oleg8 Скачать
    1 | 0
    TNT serials [ 11.11 GB ] Ольга / Сезон: 2 / Серии 1-20 из 20 [2017 WEB-DL 720p] GEKADOL Скачать
    1 | 0
    TNT serials [ 5.66 GB ] Ольга / Сезон: 2 / Серии 1-20 из 20 [2017 HDTVRip] + GEKADOL Скачать
    3 | 0
    TNT serials [ 21.24 GB ] Ольга / Сезон: 2 / Серии 1-19 из 19 + Ольга за кадром фильм о сериале [2017 HDTV 1080P] От Generalfilm White Smoke Скачать
    1 | 0
    Наши сериалы [ 1.46 GB ] Парфюмерша / 2 сезон / 1-4 серии из 4 [2017 WEB-DLRip] bober100 Скачать
    1 | 0

    28-11-2019 20:33  

    Отключить всю рекламу на сайте

      Дорогой пользователь! Огромная просьба, поблагодарите релизера, оцените раздачу и оставьте свои комментарий, если Вы скачали Ольга через торрент бесплатно! Внесите свою лепту в развитие PiratBit!
      Комментировать посты могут только пользователи прошедшие не сложную регистрацию
      Показать сообщения:    

      Ольга через торрент
      Скачать бесплатно Ольга
      Ольга скачать торрент
      Ольга смотреть онлайн
      Cкачать фильм Ольга бесплатно
      Ольга скачать торрент в хорошем качестве
      Ольга смотреть онлайн бесплатно в хорошем качестве


      Вы не можете начинать темы
      Вы не можете отвечать на сообщения
      Вы не можете редактировать свои сообщения
      Вы не можете удалять свои сообщения
      Вы не можете голосовать в опросах
      Вы не можете прикреплять файлы к сообщениям
      Вы можете скачивать файлы