Доктор Стрэндж

Лицензия

Добыча

MVO

Дом дракона

1 сезон

Тор

Лицензия

Мэверик

Лицензия

Там, где раки поют

MVO

Властелин колец

1 сезон

Ultimate

pack

Рекомендуем

30

Repack

ВАЖНО

ВАЖНО

Ghostwire

RePack

jed

RePack

nioh2

RePack

RDR2

RePack

NEED FOR SPEED™ PAYBACK

RePack

скачать торрент

Кинопоиск HD

Острые козырьки 6 сезон

6 сезон

FAR CRY 6

RePack

скачать торрент

Лицензия

скачать торрент

MVO

1

1 сезон

скачать торрент

1 сезон

скачать торрент

Лицензия

  

Мамлюк (Давид Рондели) [1958, СССР, боевик, мелодрама, приключения, военный, DVDRip от AVP Studio] Original (rus) + eng, fre

Мамлюк через торрент piratbit.org

Размер: 1.46 GB | Добавлен: 5 лет назад | Торрент скачан:21 раз
Смотреть онлайн Мамлюк | Скачать   

05-09-2017 08:49 Мамлюк Скачать торрент  

Мамлюк
Страна: СССР
Производство: Грузия-фильм

Жанр: боевик, мелодрама, приключения, военный
Год выпуска: 1958
Продолжительность: 01:34:29

Перевод: Не требуется
Cубтитры: нет
Оригинальная аудиодорожка: русский

Режиссер: Давид Рондели

В ролях:
Дато Данелия, Отар Коберидзе, В. Джоджуа, Манана Лондаридзе, Акакий Хорава, Лия Элиава, Георгий Шавгулидзе, Дудухана Церодзе, Михаил Вашадзе, Эдишер Магалашвили, Бухути Закариадзе, Верико Анджапаридзе, Зураб Лаперадзе, Шакро Гомелаури, Григол Костава, Гурам Сагарадзе, Тариэль Сакварелидзе, Владислав Вашадзе...
Об актёрах подробней

Описание:
По мотивам повести Уиарго (К.Татаришвили) "Мамлюк" о судьбе двух грузинских мальчиков, Гоче и Хвиче, захваченных при набеге на Грузию и проданных в рабство. Гочу продали венецианским работорговцам, а Хвичу купили египетские мамлюки для пополнения своего войска. Оба мальчика забыли свою родину, свой дом, детство, друг друга.
Хвича стал называться Махмудом. В одной из битв он убивает венецианского солдата. И вдруг в умирающем Хвича узнает Гочу. В голове воскресли картины прошлого - детство в родной Грузии, друзья, родные. Дрогнула рука воина. Мамлюки, увидев растерянность Махмуда, обвинили его в измене и убили.

Источник: DVD9 R5
Качество видео: DVDRip
Формат видео: AVI

Видео: 720x544 (4:3), 25 fps, XviD ~ 1753 kbps avg, 0.179 bit/pixel
Аудио: 48 kHz, Dolby Digital AC3 5.1, 448 kbps
Аудио: 48 kHz, Dolby Digital AC3 5.1, 448 kbps Английский
Аудио: 48 kHz, Dolby Digital AC3 5.1, 448 kbps Французский

Раздача от:
Общее
Полное имя : Mamlyuk.1958.DVDRip_[New-team]_by_AVP_Studio.avi
Формат : AVI
Формат/Информация : Audio Video Interleave
Размер файла : 1,46 Гбайт
Продолжительность : 1 ч. 34 м.
Общий поток : 2211 Кбит/сек
Программа кодирования : VirtualDubMod 1.5.10.3 | www.virtualdub-fr.org || (build 2550/release)
Библиотека кодирования : VirtualDubMod build 2550/release

Видео
Идентификатор : 0
Формат : MPEG-4 Visual
Профиль формата : Advanced Simple@L5
Параметр BVOP формата : 1
Параметр QPel формата : Нет
Параметр GMC формата : Без точки перехода
Параметр матрицы формата : Выборочная
Идентификатор кодека : XVID
Идентификатор кодека/Подсказка : XviD
Продолжительность : 1 ч. 34 м.
Битрейт : 1753 Кбит/сек
Ширина : 720 пикселей
Высота : 544 пикселя
Соотношение сторон : 4:3
Частота кадров : 25,000 кадров/сек
Цветовое пространство : YUV
Субдискретизация насыщенности : 4:2:0
Битовая глубина : 8 бит
Тип развёртки : Прогрессивная
Метод сжатия : С потерями
Бит/(Пиксели*Кадры) : 0.179
Размер потока : 1,16 Гбайт (79%)
Библиотека кодирования : XviD 73

Аудио
Идентификатор : 1
Формат : AC-3
Формат/Информация : Audio Coding 3
Параметр Endianness формата : Big
Идентификатор кодека : 2000
Продолжительность : 1 ч. 34 м.
Вид битрейта : Постоянный
Битрейт : 448 Кбит/сек
Каналы : 6 каналов
Расположение каналов : Front: L C R, Side: L R, LFE
Частота : 48,0 КГц
Частота кадров : 31,250 кадров/сек (1536 SPF)
Битовая глубина : 16 бит
Метод сжатия : С потерями
Размер потока : 303 Мбайт (20%)
Выравнивание : Разделение по промежуткам
Продолжительность промежутка : 40 мс. (1,00 видеокадр)
Время предзагрузки промежутка : 500 мс



Скачать Мамлюк через торрент http://s02.radikal.ru/i175/1709/4e/45a2658352ab.png Скачать, смотреть онлайн Мамлюк бесплантно в хорошем качестве Описание:По мотивам повести Уиарго (К.Татаришвили) "Мамлюк" о судьбе двух грузинских мальчиков, Гоче и Хвиче, захваченных при набеге на ... 10 10 1
Info! Золотая раздача, скачанное не засчитывается.
Торрент: Зарегистрирован [2017-09-05 08:49] · скачан: 21 раз
Статус: √ проверено
Размер: 1.46 GB
Как cкачать? Как скачать Мамлюк через торрент | UTorrent

% Раздел Тема Автор DL S | L
Кино СССР [ 1.46 GB ] Мамлюк | | DVDRip-AVC от AVP Studio AVP Studio Скачать
1 | 0

28-11-2019 20:33  

Отключить вcю реклaмy на сайте

    Дорогой пользователь! Огромная просьба, поблагодарите релизера, оцените раздачу и оставьте свои комментарий, если Вы скачали Мамлюк через торрент бесплатно!!
    Комментировать посты могут только пользователи прошедшие не сложную регистрацию
    Показать сообщения:    


    Мамлюк через торрент
    Скачать бесплатно Мамлюк
    Мамлюк скачать торрент
    Мамлюк смотреть онлайн
    Cкачать фильм Мамлюк бесплатно
    Мамлюк скачать торрент в хорошем качестве
    Мамлюк смотреть онлайн бесплатно в хорошем качестве
    Вы не можете начинать темы
    Вы не можете отвечать на сообщения
    Вы не можете редактировать свои сообщения
    Вы не можете удалять свои сообщения
    Вы не можете голосовать в опросах
    Вы не можете прикреплять файлы к сообщениям
    Вы можете скачивать файлы