Ссылка на приватное зеркало всего за 1$. Внимание количество ограничено!!!

iTunes

iTunes

iTunes

1

iTunes

iTunes

iTunes

iTunes

iTunes

30
pack

$ от Little Big

ВАЖНО

!!Акция!!

Alien_RageХит недели

RePack

Resident Evil 21

ИГРА 18+

pack

RePack

jed

!!Акция!!

Alien_Rage

RePack

fifa19

RePack

Assassins Creed: Odyssey

RePack

NEED FOR SPEED™ PAYBACK

4 сезон

9 сезон

Бесстыжие 9 сезон

Все сериалы

все сериалы на PB.wtf

RePack

FAR CRY 5
  

Макс Манус: Человек войны / Max Manus (Хоаким Роннинг, Эспен Сандберг / Joachim Rønning, Espen Sandberg) [2008 г., драма, военный, биография, история, BDRip, 720p] piratbit.org

Макс Манус: Человек войны через торрент piratbit.org

Размер: 4.84 GB | Добавлен: 9 лет 8 мес. назад | Торрент скачан:25 раз
Скачать  

23-10-2010 09:13 Макс Манус: Человек войны Скачать торрент  

Макс Манус: Человек войны / Max Manus«Когда война становится смыслом жизни...»
Год выпуска: 2008
Страна: Германия, Дания, Норвегия
Жанр: боевик, драма, военный, биография, история
Продолжительность: 01:57:41
Субтитры: Русские
Перевод:
Профессиональный (многоголосый, закадровый) Лицензия Любительский (одноголосый) superarx -->отдельно

Режиссер: Хоаким Роннинг / Joachim Roenning, Эспен Сандберг / Espen Sandberg
Сценарий: Томас Нордсет-Тиллер / Thomas Nordseth-Tiller
Продюсер: Йонас Аллен / Jonas Allen, Петтер Дж. Боргли / Petter J. Borgli, Питер Бозе / Peter Bose, Marcus B. Brodersen, Sveinung Golimo
Оператор: Геир Хартли Андреассен / Geir Hartly Andreassen
Композитор: Тронд Бьеркнес / Trond Bjerknes
Бюджет: $50 000 000 | Сборы в мире: $14 473 606 | Сборы в России: $2 682
IMDB: 7.60 (6 124) | КиноПоиск: 6.848 (152)
КиноПоиск.Ru | IMDb.com

В ролях:
Аксель Хенни, Агнес Киттелсен, Николай Клеве Брош, Кен Дюкен, Кристиан Перерсен, Кнут Йонер, Матс Элдоен, Карре Хаген Сиднесс, Виктория Винги, Пал Сверре Валхейм Хэйген

Описание:
Максу Манусу было чуть больше двадцати, когда началась Вторая Мировая Война, и Норвегию оккупировали нацисты. Макс стал одним из самых бесстрашных и изобретательных диверсантов норвежского сопротивления. Под его командованием команда молодых ребят взрывала немецкие танкеры и захватывала штаб-квартиры в центре окупированной столицы, кишащей гестаповцами. На несколько страшных лет война стала жизнью для Макса - на ней он встретил свою настоящую любовь, на ней же потерял лучшего друга.

Качество: BDRip | [img]http:// СПАМ | Формат: MKV
Видео кодек: H.264 | Аудио кодек: АС3, DTS
Видео: 1280x544, 24 fps, x264@L4.1, ~4667 kbps avg
Аудио № 1: Русский: 48 kHz, AC3, 3/2 (L,C,R,l,r) LFE ch, ~384.00 kbps avg |MVO R5|
Аудио № 2: Русский: 48 kHz, AC3, 2.0 (L,R), ~192.00 kbps avg |VO (superarx)|→отдельно
Аудио № 3: Норвежский 48 kHz, AC3, 3/2 (L,C,R,l,r) LFE ch, ~640.00 kbps avg→отдельно
Субтитры: Russian

Complete name : Max.Manus.2008.720p.CHD.mkv
Format : Matroska
File size : 4.15 GiB
Duration : 1h 57mn
Overall bit rate : 5 053 Kbps
Encoded date : UTC 2010-10-18 19:01:52
Writing application : mkvmerge v3.3.0 ('Language') built on Mar 24 2010 14:59:24
Writing library : libebml v0.8.0 libmatroska v0.9.0
Video #1
ID : 1
Format : AVC
Format/Info : Advanced Video Codec
Format profile : High@L4.1
Format settings, CABAC : Yes
Format settings, ReFrames : 4 frames
Muxing mode : Container profile=Unknown@4.1
Codec ID : V_MPEG4/ISO/AVC
Duration : 1h 57mn
Bit rate : 4 568 Kbps
Nominal bit rate : 4 667 Kbps
Width : 1 280 pixels
Height : 544 pixels
Display aspect ratio : 2.35:1
Frame rate : 24.000 fps
Resolution : 8 bits
Colorimetry : 4:2:0
Scan type : Progressive
Bits/(Pixel*Frame) : 0.273
Stream size : 3.76 GiB (90%)
Writing library : x264 core 67 r1143M 7554705
Encoding settings : cabac=1 / ref=4 / deblock=1:-3:-3 / analyse=0x3:0x113 / me=umh / subme=8 / psy_rd=1.3:0.6 / mixed_ref=1 / me_range=32 / chroma_me=1 / trellis=1 / 8x8dct=1 / cqm=2 / deadzone=6,4 / chroma_qp_offset=-8 / threads=6 / nr=0 / decimate=1 / mbaff=0 / bframes=3 / b_pyramid=1 / b_adapt=1 / b_bias=0 / direct=3 / wpredb=1 / keyint=250 / keyint_min=25 / scenecut=40 / rc=2pass / bitrate=4667 / ratetol=1.0 / qcomp=1.00 / qpmin=10 / qpmax=51 / qpstep=4 / cplxblur=20.0 / qblur=0.5 / ip_ratio=1.40 / pb_ratio=1.30 / aq=1:0.50 / zones=0,0,b=0.3
Language : Norwegian
Audio #2
ID : 2
Format : AC-3
Format/Info : Audio Coding 3
Codec ID : A_AC3
Duration : 1h 57mn
Bit rate mode : Constant
Bit rate : 384 Kbps
Channel(s) : 6 channels
Channel positions : Front: L C R, Surround: L R, LFE
Sampling rate : 48.0 KHz
Stream size : 323 MiB (8%)
Title : MVO R5
Language : Russian
Text #3
ID : 3
Format : UTF-8
Codec ID : S_TEXT/UTF8
Codec ID/Info : UTF-8 Plain Text
Title : Russian (T1gRa)
Language : Russian
Text #4
ID : 4
Format : UTF-8
Codec ID : S_TEXT/UTF8
Codec ID/Info : UTF-8 Plain Text
Language : English
Cемпл

Скриншоты:
скриншот  [th]http://s51.radikal.ru/i132/1010/ad/58a23db6a21e.pn[/th] скриншот   скриншот  
piratbit.org



Скачать Макс Манус: Человек войны через торрент http://i077.radikal.ru/1010/69/e2034c2da7d7.jpg Скачать фильм Макс Манус: Человек войны через торрент бесплантно в хорошем качестве Описание:Максу Манусу было чуть больше двадцати, когда началась Вторая Мировая Война, и Норвегию оккупировали нацисты. Макс стал одним из ... 5 10 3
Info! Золотая раздача, скачанное не засчитывается.
Торрент: Зарегистрирован [2010-10-23 09:13] · скачан: 25 раз
Статус: √ проверено
Размер: 4.84 GB
Как cкачать? Как скачать Макс Манус: Человек войны через торрент | qTorrent

% Раздел Тема Автор DL S | L
Фильмы 2006-2008 [ 1.46 GB ] Макс Манус: Человек войны / Max Manus [2008 военный HDRip] [MVO] [] killermax2013 Скачать
1 | 0
Фильмы (Blu-ray, BD-Remux, HDDVD) [ 20.15 GB ] Макс Манус: Человек войны / Max Manus [2008 военный Blu-ray 1080i] [MVO] killermax2013 Скачать
1 | 0
Фильмы 2006-2008 [ 2.17 GB ] Макс Манус: Человек войны / Max Manus [2008 Военный Биография История BDRip-AVC] makarevich Скачать
1 | 0
Фильмы 2006-2008 [ 1.37 GB ] Макс Манус: Человек войны / Max Manus [2008 военный биография история ... DVDRip] kycher1972 Скачать
1 | 0

28-11-2019 20:33  

Отключить всю рекламу на сайте

    Дорогой пользователь! Огромная просьба, поблагодарите релизера, оцените раздачу и оставьте свои комментарий, если Вы скачали Макс Манус: Человек войны через торрент бесплатно! Внесите свою лепту в развитие PiratBit!
    Комментировать посты могут только пользователи прошедшие не сложную регистрацию
    Показать сообщения:    

    Макс Манус: Человек войны через торрент
    Скачать бесплатно Макс Манус: Человек войны
    Макс Манус: Человек войны скачать торрент
    Макс Манус: Человек войны смотреть онлайн
    Cкачать фильм Макс Манус: Человек войны бесплатно
    Макс Манус: Человек войны скачать торрент в хорошем качестве
    Макс Манус: Человек войны смотреть онлайн бесплатно в хорошем качестве


    Вы не можете начинать темы
    Вы не можете отвечать на сообщения
    Вы не можете редактировать свои сообщения
    Вы не можете удалять свои сообщения
    Вы не можете голосовать в опросах
    Вы не можете прикреплять файлы к сообщениям
    Вы можете скачивать файлы