Доктор Стрэндж

Лицензия

Добыча

MVO

Дом дракона

1 сезон

Тор

Лицензия

Мэверик

Лицензия

Там, где раки поют

MVO

Властелин колец

1 сезон

Ultimate

pack

Рекомендуем

30

Repack

ВАЖНО

ВАЖНО

Ghostwire

RePack

jed

RePack

nioh2

RePack

RDR2

RePack

NEED FOR SPEED™ PAYBACK

RePack

скачать торрент

Кинопоиск HD

Острые козырьки 6 сезон

6 сезон

FAR CRY 6

RePack

скачать торрент

Лицензия

скачать торрент

MVO

1

1 сезон

скачать торрент

1 сезон

скачать торрент

Лицензия

  

На дальних берегах (Тофиг Тагизаде) [1958, СССР, боевик, приключения, биография, DVDRip от AVP Studio]

На дальних берегах через торрент piratbit.org

Размер: 745 MB | Добавлен: 5 лет назад | Торрент скачан:19 раз
Смотреть онлайн На дальних берегах | Скачать   

06-09-2017 09:09 На дальних берегах Скачать торрент  

На дальних берегах
Страна: СССР
Производство: Бакинская киностудия

Жанр: боевик, приключения, биография
Год выпуска: 1958
Продолжительность: 01:27:18

Перевод: Не требуется
Cубтитры: нет
Оригинальная аудиодорожка: русский

Режиссер: Давид Рондели

В ролях:
Нодар Шашик-оглы, Юрий Боголюбов, Агния Елекоева, Алескер Гаджи Алекперов, Лев Бордуков, Андрей Файт, Григорий Шпигель, Николай Боголюбов, Адиль Искендеров, Марина Фигнер, Валдемарс Зандбергс...
Об актёрах подробней

Описание:
По одноименной повести Имрана Касумова и Гасана Сеидбейли.
Гестапо Триеста сбилось с ног в поисках неуловимого и смелого партизана-разведчика по прозвищу Михайло. Он появлялся в городе в форме немецкого офицера, совершал невероятно дерзкие акции и исчезал невредимым, оставляя фашистов в дураках. Взрыв "Зольдатенхайма", кинотеатра, офицерского казино, железнодорожного моста, эшелона с гитлеровцами...

Источник: DVD5 R5
Качество видео: DVDRip
Формат видео: AVI

Видео: 640x480 (4:3), 25 fps, XviD ~ 1056 kbps avg, 0.137 bit/pixel
Аудио: 48 kHz, MP3 2.0, 128 kbps

Раздача от:
Общее
Полное имя : Na.dalnih.beregah.1958.DVDRip-745_[New-team]_by_AVP_Studio.avi
Формат : AVI
Формат/Информация : Audio Video Interleave
Размер файла : 745 Мбайт
Продолжительность : 1 ч. 27 м.
Общий поток : 1194 Кбит/сек
Программа кодирования : VirtualDubMod 1.5.10.3 | www.virtualdub-fr.org || (build 2550/release)
Библиотека кодирования : VirtualDubMod build 2550/release

Видео
Идентификатор : 0
Формат : MPEG-4 Visual
Профиль формата : Advanced Simple@L5
Параметр BVOP формата : 1
Параметр QPel формата : Нет
Параметр GMC формата : Без точки перехода
Параметр матрицы формата : Выборочная
Идентификатор кодека : XVID
Идентификатор кодека/Подсказка : XviD
Продолжительность : 1 ч. 27 м.
Битрейт : 1056 Кбит/сек
Ширина : 640 пикселей
Высота : 480 пикселей
Соотношение сторон : 4:3
Частота кадров : 25,000 кадров/сек
Цветовое пространство : YUV
Субдискретизация насыщенности : 4:2:0
Битовая глубина : 8 бит
Тип развёртки : Прогрессивная
Метод сжатия : С потерями
Бит/(Пиксели*Кадры) : 0.137
Размер потока : 659 Мбайт (88%)
Библиотека кодирования : XviD 73

Аудио
Идентификатор : 1
Формат : MPEG Audio
Версия формата : Version 1
Профиль формата : Layer 3
Идентификатор кодека : 55
Идентификатор кодека/Подсказка : MP3
Продолжительность : 1 ч. 27 м.
Вид битрейта : Постоянный
Битрейт : 128 Кбит/сек
Каналы : 2 канала
Частота : 48,0 КГц
Метод сжатия : С потерями
Размер потока : 79,9 Мбайт (11%)
Выравнивание : Соединение по промежуткам
Продолжительность промежутка : 40 мс. (1,00 видеокадр)
Время предзагрузки промежутка : 504 мс.
Библиотека кодирования : LAME3.99r
Настройки программы : -m s -V 4 -q 2 -lowpass 17 -b 128



Скачать На дальних берегах через торрент http://s018.radikal.ru/i514/1709/ec/64d02c116ec3.png Скачать, смотреть онлайн На дальних берегах бесплантно в хорошем качестве Описание:По одноименной повести Имрана Касумова и Гасана Сеидбейли.Гестапо Триеста сбилось с ног в поисках неуловимого и смелого ... 10 10 1
Info! Золотая раздача, скачанное не засчитывается.
Торрент: Зарегистрирован [2017-09-06 09:09] · скачан: 19 раз
Статус: √ проверено
Размер: 745 MB
Как cкачать? Как скачать На дальних берегах через торрент | UTorrent

% Раздел Тема Автор DL S | L
Кино СССР [ 1.09 GB ] На дальних берегах | | DVDRip-AVC от AVP Studio AVP Studio Скачать
2 | 0
Кино СССР [ 1.09 GB ] На дальних берегах | | DVDRip от AVP Studio AVP Studio Скачать
1 | 0

28-11-2019 20:33  

Отключить вcю реклaмy на сайте

    Дорогой пользователь! Огромная просьба, поблагодарите релизера, оцените раздачу и оставьте свои комментарий, если Вы скачали На дальних берегах через торрент бесплатно!!
    Комментировать посты могут только пользователи прошедшие не сложную регистрацию
    Показать сообщения:    


    На дальних берегах через торрент
    Скачать бесплатно На дальних берегах
    На дальних берегах скачать торрент
    На дальних берегах смотреть онлайн
    Cкачать фильм На дальних берегах бесплатно
    На дальних берегах скачать торрент в хорошем качестве
    На дальних берегах смотреть онлайн бесплатно в хорошем качестве
    Вы не можете начинать темы
    Вы не можете отвечать на сообщения
    Вы не можете редактировать свои сообщения
    Вы не можете удалять свои сообщения
    Вы не можете голосовать в опросах
    Вы не можете прикреплять файлы к сообщениям
    Вы можете скачивать файлы