Ссылка на приватное зеркало всего за 1$. Внимание количество ограничено!!!

iTunes

iTunes

iTunes

1

iTunes

iTunes

iTunes

iTunes

iTunes

30
pack

$ от Little Big

ВАЖНО

!!Акция!!

Alien_RageХит недели

RePack

Resident Evil 21

ИГРА 18+

pack

RePack

jed

!!Акция!!

Alien_Rage

RePack

fifa19

RePack

Assassins Creed: Odyssey

RePack

NEED FOR SPEED™ PAYBACK

4 сезон

9 сезон

Бесстыжие 9 сезон

Все сериалы

все сериалы на PB.wtf

RePack

FAR CRY 5
  

Дикая штучка / Wild Target (Джонатан Линн / Jonathan Lynn) [2010, боевик, комедия, драма, BDRip, 720p] piratbit.org

Дикая штучка через торрент piratbit.org

Размер: 4.63 GB | Добавлен: 9 лет 8 мес. назад | Торрент скачан:116 раз
Скачать  

23-10-2010 13:34 Дикая штучка Скачать торрент  

Дикая штучка / Wild Target Год выпуска: 2010
Страна: Франция, Великобритания
Жанр: боевик, комедия, драма, криминал
Продолжительность: 01:37:50
Перевод: Профессиональный (многоголосый, закадровый) R5
Субтитры: Русские/английские

Режиссер: Джонатан Линн / Jonathan Lynn

В ролях: Билл Найи (Victor Maynard), Эмили Блант (Rose), Руперт Гринт (Tony), Руперт Эверет (Ferguson), Айлин Эткинс (Louisa Maynard), Мартин Фриман (Hector Dixon), Грегор Фишер (Mike), Грэхэм Сид (Appraiser), Дункан Дафф (Jeweller), Stephanie Lammond (Hotel receptionist), Филип Баттли (Barman), Джофф Белл (Fabian)

Описание: Виктор - наемный убийца из династии киллеров, достигший вершин своей «профессии». Несмотря на это, Виктору так хочется семейного счастья, но личная жизнь у него никак не хочет складываться. Неожиданно он влюбляется в талантливую аферистку, которую должен был «убрать», выполняя очередное задание…

Бюджет: $8 000 000
Сборы в мире: $1 240 333
Мировая премьера: 6 ноября 2009
Релиз на DVD: 26 августа 2010, «ПАРАДИЗ-ВC»

сэмпл: http://sendfile.su/184306
Качество: BDRip
Источник: Wild Target 2010 BluRay 720p DTS x264-ALLiANCE
Формат: MKV
Видео кодек: H.264
Аудио кодек: AC3
Видео: AVC; 1280x544 (2.35:1); 4875 Kbps; 24 fps; 0,284 bpp
Аудио: №1: Russian; AC3; 48 kHz, 5.1 CH, 384 Kbps; CBR
Аудио: №2: English; DTS; 48 kHz, 5.1 CH, 1509 Kbps; CBR →отдельноMPAA: PG-13 - Детям до 13 лет просмотр не желателен
Complete name : Wild.Target.720p.BluRay.x264-ALLiANCE.mkv
Format : Matroska
File size : 3.59 GiB
Duration : 1h 37mn
Overall bit rate : 5 258 Kbps
Encoded date : UTC 2010-10-09 09:23:31
Writing application : mkvmerge v3.3.0 ('Language') built on Mar 24 2010 14:59:24
Writing library : libebml v0.8.0 + libmatroska v0.9.0
Video #1
ID : 1
Format : AVC
Format/Info : Advanced Video Codec
Format profile : High@L3.1
Format settings, CABAC : Yes
Format settings, ReFrames : 5 frames
Muxing mode : Container profile=Unknown@3.1
Codec ID : V_MPEG4/ISO/AVC
Duration : 1h 37mn
Bit rate : 4 769 Kbps
Nominal bit rate : 4 875 Kbps
Width : 1 280 pixels
Height : 544 pixels
Display aspect ratio : 2.35:1
Frame rate : 24.000 fps
Resolution : 8 bits
Colorimetry : 4:2:0
Scan type : Progressive
Bits/(Pixel*Frame) : 0.285
Stream size : 3.26 GiB (91%)
Writing library : x264 core 105 r1732 2b04482
Encoding settings : cabac=1 / ref=5 / deblock=1:0:0 / analyse=0x3:0x113 / me=umh / subme=7 / psy=1 / psy_rd=1.00:0.00 / mixed_ref=1 / me_range=16 / chroma_me=1 / trellis=1 / 8x8dct=1 / cqm=0 / deadzone=21,11 / fast_pskip=0 / chroma_qp_offset=-2 / threads=12 / sliced_threads=0 / nr=0 / decimate=1 / interlaced=0 / constrained_intra=0 / bframes=3 / b_pyramid=2 / b_adapt=1 / b_bias=0 / direct=1 / weightb=1 / open_gop=0 / weightp=2 / keyint=250 / keyint_min=24 / scenecut=40 / intra_refresh=0 / rc_lookahead=40 / rc=2pass / mbtree=1 / bitrate=4875 / ratetol=1.0 / qcomp=0.60 / qpmin=10 / qpmax=51 / qpstep=4 / cplxblur=20.0 / qblur=0.5 / ip_ratio=1.40 / aq=1:1.00
Language : English
Audio #2
ID : 2
Format : AC-3
Format/Info : Audio Coding 3
Codec ID : A_AC3
Duration : 1h 37mn
Bit rate mode : Constant
Bit rate : 384 Kbps
Channel(s) : 6 channels
Channel positions : Front: L C R, Surround: L R, LFE
Sampling rate : 48.0 KHz
Stream size : 269 MiB (7%)
Title : R5
Language : Russian
Text #3
ID : 3
Format : UTF-8
Codec ID : S_TEXT/UTF8
Codec ID/Info : UTF-8 Plain Text
Language : Russian
Text #4
ID : 4
Format : UTF-8
Codec ID : S_TEXT/UTF8
Codec ID/Info : UTF-8 Plain Text
Language : English
piratbit.org



Скачать Дикая штучка через торрент http://i10.fastpic.ru/big/2010/1009/ad/3652269eeb888e395323b09b14e039ad.jpg Скачать фильм Дикая штучка через торрент бесплантно в хорошем качестве Описание: Виктор - наемный убийца из династии киллеров, достигший вершин своей «профессии». Несмотря на это, Виктору так хочется семейного ... 5 10 10
Info! Золотая раздача, скачанное не засчитывается.
Торрент: Зарегистрирован [2010-10-23 13:34] · скачан: 116 раз
Статус: √ проверено
Размер: 4.63 GB
Как cкачать? Как скачать Дикая штучка через торрент | qTorrent

% Раздел Тема Автор DL S | L
Фильмы 2010 [ 735 MB ] Дикая штучка / Wild target [2010 HDRip-AVC] [MVO] killermax2013 Скачать
1 | 0
Фильмы 2010 [ 2.18 GB ] Дикая штучка / Wild Target [2010 BDRip-AVC] MVO [] potroks Скачать
1 | 0
Фильмы 2010 [ 2.05 GB ] Дикая штучка / Wild Target [2010 HDRip лицензия] Чупачупсик Скачать
1 | 0
Фильмы [HD 720p, 1080p] (Хороший звук DUB, MVO) [ 6.79 GB ] Дикая штучка / Wild Target [2009 BDRip лицензия] DEVI Скачать
2 | 0
Фильмы 2010 [ 744 MB ] Дикая штучка / Wild Target [2010 ... HDRip] Venxxx Скачать
1 | 0
Фильмы (DVD фильмы) [ 7.17 GB ] Дикая штучка / Wild Target [2010 DVD9 лицензия] nickson-82 Скачать
1 | 0
Фильмы 2010 [ 1.36 GB ] Дикая штучка / Wild Target [2010 DVDRip] -=Cherry=- Скачать
1 | 0

28-11-2019 20:33  

Отключить всю рекламу на сайте

23-10-2010 14:16 Дикая штучка Скачать торрент  

ФИЛЬМ ПРОСТО СУПЕР !!! piratbit.org



23-10-2010 14:48 Дикая штучка Скачать торрент  

надо глянуть , спасибоpiratbit.org



23-10-2010 17:20 Дикая штучка Скачать торрент  

классная комедия! давно так не смеялся!piratbit.org



23-10-2010 21:49 Дикая штучка Скачать торрент  

хороший фильмpiratbit.org



    Дорогой пользователь! Огромная просьба, поблагодарите релизера, оцените раздачу и оставьте свои комментарий, если Вы скачали Дикая штучка через торрент бесплатно! Внесите свою лепту в развитие PiratBit!
    Комментировать посты могут только пользователи прошедшие не сложную регистрацию
    Показать сообщения:    

    Дикая штучка через торрент
    Скачать бесплатно Дикая штучка
    Дикая штучка скачать торрент
    Дикая штучка смотреть онлайн
    Cкачать фильм Дикая штучка бесплатно
    Дикая штучка скачать торрент в хорошем качестве
    Дикая штучка смотреть онлайн бесплатно в хорошем качестве


    Вы не можете начинать темы
    Вы не можете отвечать на сообщения
    Вы не можете редактировать свои сообщения
    Вы не можете удалять свои сообщения
    Вы не можете голосовать в опросах
    Вы не можете прикреплять файлы к сообщениям
    Вы можете скачивать файлы