1 сезон

3 сезон

iTunes

1

iTunes

DUB Netflix

iTunes

13

1 сезон

RePack

30

Deluxe

pack

Легкие деньги

ВАЖНО

ИГРА 18+

pack

RePack

MK11

RePack

jed

RePack

fifa19

RePack

RDR2

RePack

NEED FOR SPEED™ PAYBACK

4 сезон

9 сезон

Бесстыжие 9 сезон

Все сериалы

все сериалы на PB.wtf

RePack

FAR CRY 5

Anonymous, доброй ночи, мы не успеваем до 1 числа собрать деньги на оплату серверов, помогите нам пожалуйста в это трудное время. В качестве благодарности мы отключим Вам всю рекламу на сайте (укажите свой ник в строку Ваше имя)!

×
  
Magnet ссылка

Их звёздный час / Their Finest (Лоне Шерфиг) [2016, Драма, мелодрама, комедия, BDRip-AVC] MVO [Лицензия / iTunes] piratbit.org

Их звёздный час через торрент piratbit.org

Размер: 2.24 GB | Добавлен: 3 года 9 мес. назад | Торрент скачан:76 раз
Скачать  

07-09-2017 13:50 Их звёздный час Скачать торрент  

Их звёздный час / Their Finest
Год выпуска: 2016
Страна: Великобритания
Жанр: Драма, мелодрама, комедия
Продолжительность: 01:56:59
Перевод: Профессиональный многоголосый [Лицензия / iTunes]
Субтитры: английские

Режиссер: Лоне Шерфиг

rating

В ролях:

Джемма Артертон, Сэм Клафлин, Билл Найи, Джек Хьюстон, Пол Риттер, Рэйчел Стирлинг, Ричард Э. Грант, Генри Гудман, Джейк Лэси, Джереми Айронс

Описание:

Действие разворачивается в Лондоне 1940 года, когда город бомбардировали немецкие войска. Зрителям обещают показать «эксцентричную битву полов», историю «остроумную, душевную и трогательную, которая расскажет о молодой женщине-сценаристке, ищущей свой путь в вопросах жизни, смерти и любви».

Качество: BDRip-AVC
Формат: MKV
Видео кодек: H.264
Аудио кодек: AC3

Видео: 1024x428 (16:9), 23.976 fps, x264 ~1911 kbps avg, 0.128 bit/pixel
Аудио#1: 48 kHz, AC3 Dolby Digital, 3/2 (L,C,R,l,r) + LFE ch, ~384.00 kbps avg | RUS (iTunes)
Аудио#2: 48 kHz, AC3 Dolby Digital, 3/2 (L,C,R,l,r) + LFE ch, ~448.00 kbps avg | ENG
скриншот   скриншот   скриншот   скриншот  

Общее
Уникальный идентификатор : 216445607629898469327412124299126692852 (0xA2D5E85F74DFB24C801C675E0A9CDBF4)
Полное имя : D:Their.Finest.2016.BDRip(AVC).OlLanDGroup.mkv
Формат : Matroska
Версия формата : Version 2
Размер файла : 2,24 Гбайт
Продолжительность : 1 ч. 56 м.
Общий поток : 2744 Кбит/сек
Название фильма : Their.Finest.2016 #TorpedoUK#
Дата кодирования : UTC 2017-09-07 10:13:33
Программа кодирования : mkvmerge v7.8.0 ('River Man') 32bit built on Apr 3 2015 12:11:22
Библиотека кодирования : libebml v1.3.1 + libmatroska v1.4.2
Обложка : Yes
Attachments : cover_land.jpg / small_cover.jpg / small_cover_land.jpg / cover.jpg

Видео
Идентификатор : 1
Формат : AVC
Формат/Информация : Advanced Video Codec
Профиль формата : High@L4.1
Параметр CABAC формата : Да
Параметр ReFrames формата : 10 кадров
Идентификатор кодека : V_MPEG4/ISO/AVC
Продолжительность : 1 ч. 56 м.
Битрейт : 1911 Кбит/сек
Ширина : 1024 пикселя
Высота : 428 пикселей
Соотношение сторон : 2,40:1
Режим частоты кадров : Постоянный
Частота кадров : 23,976 (24000/1001) кадра/сек
Цветовое пространство : YUV
Субдискретизация насыщенности : 4:2:0
Битовая глубина : 8 бит
Тип развёртки : Прогрессивная
Бит/(Пиксели*Кадры) : 0.182
Размер потока : 1,52 Гбайт (68%)
Библиотека кодирования : x264 core 146 r2538 121396c
Настройки программы : cabac=1 / ref=10 / deblock=1:-3:-3 / analyse=0x3:0x133 / me=umh / subme=10 / psy=1 / psy_rd=1.00:0.07 / mixed_ref=1 / me_range=48 / chroma_me=1 / trellis=2 / 8x8dct=1 / cqm=0 / deadzone=21,11 / fast_pskip=0 / chroma_qp_offset=-3 / threads=6 / lookahead_threads=1 / sliced_threads=0 / nr=0 / decimate=0 / interlaced=0 / bluray_compat=0 / constrained_intra=0 / bframes=10 / b_pyramid=2 / b_adapt=2 / b_bias=0 / direct=3 / weightb=1 / open_gop=0 / weightp=2 / keyint=240 / keyint_min=23 / scenecut=40 / intra_refresh=0 / rc_lookahead=40 / rc=2pass / mbtree=0 / bitrate=1911 / ratetol=1.0 / qcomp=0.60 / qpmin=0 / qpmax=69 / qpstep=4 / cplxblur=20.0 / qblur=0.5 / vbv_maxrate=50000 / vbv_bufsize=62500 / nal_hrd=none / filler=0 / ip_ratio=1.40 / pb_ratio=1.30 / aq=1:1.00
Язык : English
Default : Да
Forced : Нет

Аудио #1
Идентификатор : 2
Формат : AC-3
Формат/Информация : Audio Coding 3
Расширение режима : CM (complete main)
Параметр Endianness формата : Big
Идентификатор кодека : A_AC3
Продолжительность : 1 ч. 56 м.
Вид битрейта : Постоянный
Битрейт : 384 Кбит/сек
Каналы : 6 каналов
Расположение каналов : Front: L C R, Side: L R, LFE
Частота : 48,0 КГц
Частота кадров : 31,250 кадров/сек (1536 spf)
Битовая глубина : 16 бит
Метод сжатия : С потерями
Размер потока : 321 Мбайт (14%)
Заголовок : iTunes
Язык : Russian
Default : Да
Forced : Нет

Аудио #2
Идентификатор : 3
Формат : AC-3
Формат/Информация : Audio Coding 3
Расширение режима : CM (complete main)
Параметр Endianness формата : Big
Идентификатор кодека : A_AC3
Продолжительность : 1 ч. 56 м.
Вид битрейта : Постоянный
Битрейт : 448 Кбит/сек
Каналы : 6 каналов
Расположение каналов : Front: L C R, Side: L R, LFE
Частота : 48,0 КГц
Частота кадров : 31,250 кадров/сек (1536 spf)
Битовая глубина : 16 бит
Метод сжатия : С потерями
Размер потока : 375 Мбайт (16%)
Заголовок : Original
Язык : English
Default : Нет
Forced : Нет

Текст
Идентификатор : 4
Формат : UTF-8
Идентификатор кодека : S_TEXT/UTF8
Идентификатор кодека/Информация : UTF-8 Plain Text
Заголовок : SDH
Язык : English
Default : Нет
Forced : Нет

Меню
00:00:00.000 : en:Chapter 01
00:07:49.302 : en:Chapter 02
00:15:15.706 : en:Chapter 03
00:21:08.016 : en:Chapter 04
00:30:43.633 : en:Chapter 05
00:38:24.051 : en:Chapter 06
00:46:26.784 : en:Chapter 07
00:53:51.186 : en:Chapter 08
01:00:41.596 : en:Chapter 09
01:08:32.358 : en:Chapter 10
01:18:48.557 : en:Chapter 11
01:22:49.798 : en:Chapter 12
01:29:51.010 : en:Chapter 13
01:37:05.402 : en:Chapter 14
01:45:05.340 : en:Chapter 15
01:50:42.260 : en:Chapter 16

piratbit.org



Скачать Их звёздный час через торрент http://lostpix.com/img/2017-09/07/fkhmtoip7g7ijywausl5dfrvd.jpg Скачать фильм Их звёздный час через торрент бесплантно в хорошем качестве Описание: Действие разворачивается в Лондоне 1940 года, когда город бомбардировали немецкие войска. Зрителям обещают показать ... 10 10 3
Торрент: Зарегистрирован [2017-09-07 13:50] · скачан: 76 раз
Статус: √ проверено
Размер: 2.24 GB
Как cкачать? Как скачать Их звёздный час через торрент | UTorrent

% Раздел Тема Автор DL S | L
Фильмы (Blu-ray, BD-Remux, HDDVD) [ 18.82 GB ] Их звёздный час / Their Finest [2016 BD Remux 1080p ] MVO bober100 Скачать
1 | 0
Фильмы 2016 [DVDrip, WEB-DLRip, HDrip] (DUB, MVO) [ 2.18 GB ] Их звездный час / Their Finest [2016 HDRip многоголосый закадровый ""] coc900 Скачать
1 | 0
Фильмы 2016 [DVDrip, WEB-DLRip, HDrip] (DUB, MVO) [ 1.41 GB ] Их звездный час / Their Finest [2016 BDRip] [MVO] killermax2013 Скачать
1 | 0
Фильмы без перевода [ 17.45 GB ] Их звёздные полтора часа / Their Finest [2016 BDRemux] [Оригинал-ENG] smaster Скачать
1 | 0

28-11-2019 20:33  

Отключить всю рекламу на сайте

    Дорогой пользователь! Огромная просьба, поблагодарите релизера, оцените раздачу и оставьте свои комментарий, если Вы скачали Их звёздный час через торрент бесплатно! Внесите свою лепту в развитие PiratBit!
    Комментировать посты могут только пользователи прошедшие не сложную регистрацию
    Показать сообщения:    

    Их звёздный час через торрент
    Скачать бесплатно Их звёздный час
    Их звёздный час скачать торрент
    Их звёздный час смотреть онлайн
    Cкачать фильм Их звёздный час бесплатно
    Их звёздный час скачать торрент в хорошем качестве
    Их звёздный час смотреть онлайн бесплатно в хорошем качестве


    Вы не можете начинать темы
    Вы не можете отвечать на сообщения
    Вы не можете редактировать свои сообщения
    Вы не можете удалять свои сообщения
    Вы не можете голосовать в опросах
    Вы не можете прикреплять файлы к сообщениям
    Вы можете скачивать файлы