1 сезон

3 сезон

iTunes

1

iTunes

DUB Netflix

iTunes

13

1 сезон

RePack

30

Deluxe

pack

Легкие деньги

ВАЖНО

ИГРА 18+

pack

RePack

MK11

RePack

jed

RePack

fifa19

RePack

RDR2

RePack

NEED FOR SPEED™ PAYBACK

4 сезон

9 сезон

Бесстыжие 9 сезон

Все сериалы

все сериалы на PB.wtf

RePack

FAR CRY 5

Anonymous, добрый вечер, мы не успеваем до 1 числа собрать деньги на оплату серверов, помогите нам пожалуйста в это трудное время. В качестве благодарности мы отключим Вам всю рекламу на сайте (укажите свой ник в строку Ваше имя)!

×
  
Magnet ссылка

Их звездный час / Their Finest (Лоне Шерфиг) [2016 г., драма, мелодрама, комедия, HDRip, Профессиональный многоголосый закадровый "iTunes"] piratbit.org

Их звездный час через торрент piratbit.org

Размер: 2.18 GB | Добавлен: 3 года 9 мес. назад | Торрент скачан:96 раз
Скачать  

07-09-2017 18:07 Их звездный час Скачать торрент  

Их звездный час / Their Finest
Год выпуска: 2016
Страна: Великобритания / BBC Films, Welsh Government, Pinewood Pictures
Жанр: драма, мелодрама, комедия
Продолжительность: 01:57:07
Перевод: Профессиональный многоголосый закадровый (iTunes)

Режиссер: Лоне Шерфиг

rating

В ролях: Джемма Артертон, Сэм Клафлин, Билл Найи, Джек Хьюстон, Пол Риттер, Рэйчел Стирлинг, Ричард Э. Грант, Генри Гудман, Джейк Лэси, Джереми Айронс

Описание: Действие разворачивается в Лондоне 1940 года, когда город бомбардировали немецкие войска. Зрителям обещают показать «эксцентричную битву полов», историю «остроумную, душевную и трогательную, которая расскажет о молодой женщине-сценаристке, ищущей свой путь в вопросах жизни, смерти и любви».

Качество: HDRip
Формат: AVI
Видео кодек: XviD
Аудио кодек: AC3
Видео: 720x304 (2.37:1), 23.976 fps, XviD build 50 ~2273 kbps avg, 0.43 bit/pixel
Аудио: 48 kHz, AC3 Dolby Digital, 3/2 (L,C,R,l,r) + LFE ch, ~384 kbps
скриншот   скриншот   скриншот   скриншот   скриншот   скриншот   скриншот   скриншот  

General
Complete name : F:\ФИЛЬМЫ\Их звездный час.2016.HDRip.avi
Format : AVI
Format/Info : Audio Video Interleave
Format profile : OpenDML
File size : 2.18 GiB
Duration : 1 h 57 min
Overall bit rate : 2 664 kb/s
Writing application : VirtualDubMod 1.5.10.3 | www.virtualdub-fr.org || (build 2550/release)
Writing library : VirtualDubMod build 2550/release

Video
ID : 0
Format : MPEG-4 Visual
Format profile : Advanced Simple@L5
Format settings, BVOP : 1
Format settings, QPel : No
Format settings, GMC : No warppoints
Format settings, Matrix : Default (MPEG)
Codec ID : XVID
Codec ID/Hint : XviD
Duration : 1 h 57 min
Bit rate : 2 269 kb/s
Width : 720 pixels
Height : 304 pixels
Display aspect ratio : 2.35:1
Frame rate : 23.976 (24000/1001) FPS
Color space : YUV
Chroma subsampling : 4:2:0
Bit depth : 8 bits
Scan type : Progressive
Compression mode : Lossy
Bits/(Pixel*Frame) : 0.432
Stream size : 1.86 GiB (85%)
Writing library : XviD 1.2.1 (UTC 2008-12-04)

Audio
ID : 1
Format : AC-3
Format/Info : Audio Coding 3
Format settings, Endianness : Big
Codec ID : 2000
Duration : 1 h 57 min
Bit rate mode : Constant
Bit rate : 384 kb/s
Channel(s) : 6 channels
Channel positions : Front: L C R, Side: L R, LFE
Sampling rate : 48.0 kHz
Frame rate : 31.250 FPS (1536 SPF)
Bit depth : 16 bits
Compression mode : Lossy
Stream size : 322 MiB (14%)
Alignment : Split accross interleaves
Interleave, duration : 42 ms (1.00 video frame)
Interleave, preload duratio : 500 ms
Service kind : Complete Main

piratbit.org



Скачать Их звездный час через торрент https://pic1.kartinco.top/images/11/wio1p.jpg Скачать фильм Их звездный час через торрент бесплантно в хорошем качестве Описание: Действие разворачивается в Лондоне 1940 года, когда город бомбардировали немецкие войска. Зрителям обещают показать ... 10 10 3
Торрент: Зарегистрирован [2017-09-07 18:07] · скачан: 96 раз
Статус: √ проверено
Размер: 2.18 GB
Как cкачать? Как скачать Их звездный час через торрент | UTorrent

% Раздел Тема Автор DL S | L
Фильмы (Blu-ray, BD-Remux, HDDVD) [ 18.82 GB ] Их звёздный час / Their Finest [2016 BD Remux 1080p ] MVO bober100 Скачать
1 | 0
Фильмы 2016 [DVDrip, WEB-DLRip, HDrip] (DUB, MVO) [ 2.24 GB ] Их звёздный час / Their Finest [2016 BDRip-AVC] MVO bober100 Скачать
1 | 0
Фильмы 2016 [DVDrip, WEB-DLRip, HDrip] (DUB, MVO) [ 1.41 GB ] Их звездный час / Their Finest [2016 BDRip] [MVO] killermax2013 Скачать
1 | 0
Фильмы без перевода [ 17.45 GB ] Их звёздные полтора часа / Their Finest [2016 BDRemux] [Оригинал-ENG] smaster Скачать
1 | 0

28-11-2019 20:33  

Отключить всю рекламу на сайте


    Дорогой пользователь! Огромная просьба, поблагодарите релизера, оцените раздачу и оставьте свои комментарий, если Вы скачали Их звездный час через торрент бесплатно! Внесите свою лепту в развитие PiratBit!
    Комментировать посты могут только пользователи прошедшие не сложную регистрацию
    Показать сообщения:    

    Их звездный час через торрент
    Скачать бесплатно Их звездный час
    Их звездный час скачать торрент
    Их звездный час смотреть онлайн
    Cкачать фильм Их звездный час бесплатно
    Их звездный час скачать торрент в хорошем качестве
    Их звездный час смотреть онлайн бесплатно в хорошем качестве


    Вы не можете начинать темы
    Вы не можете отвечать на сообщения
    Вы не можете редактировать свои сообщения
    Вы не можете удалять свои сообщения
    Вы не можете голосовать в опросах
    Вы не можете прикреплять файлы к сообщениям
    Вы можете скачивать файлы