Лицензия

MVO

1

1 сезон

Лицензия

Лицензия

13

MVO

1 сезон

Deluxe Edition

pack

Рекомендуем

30

Repack

ВАЖНО

ВАЖНО

Ghostwire

RePack

jed

RePack

fifa19

RePack

RDR2

RePack

NEED FOR SPEED™ PAYBACK

RePack

Кинопоиск HD

 Острые козырьки 6 сезон

6 сезон

FAR CRY 6

RePack

Лицензия

MVO

1

1 сезон

1 сезон

Лицензия

  

Очарован тобой (Юлдаш Агзамов) [1958, СССР, комедия, музыка, DVDRip от AVP Studio]

Очарован тобой через торрент piratbit.org

Размер: 745 MB | Добавлен: 5 лет назад | Торрент скачан:16 раз
Смотреть онлайн Очарован тобой | Скачать   

09-09-2017 09:26 Очарован тобой Скачать торрент  

Очарован тобой
Страна: СССР
Производство: Узбекфильм

Жанр: комедия, музыка
Год выпуска: 1958
Продолжительность: 01:15:24

Перевод: Не требуется
Cубтитры: нет
Оригинальная аудиодорожка: русский

Режиссер: Юлдаш Агзамов

В ролях:
Клара Джалилова, Санат Диванов, Рано Хамрокулова, Тургун Азизов, Аббас Бакиров, Наби Рахимов...
Об актёрах подробней

Описание:
Первая узбекская музыкальная комедия.
Идет подбор актеров на главные роли нового музыкального фильма. С этой целью режиссер Абзалов со своим помощником выезжают в Самарканд, Бухару, Хорезм и другие области, ищут молодые таланты…
Зритель волею создателей фильма оказывается в кругу любителей искусств и самодеятельности. Неприхотливый сюжет нужен авторам, чтобы показать расцвет народной музыкальной культуры. Красиво снятая нарядная лента, наполненная музыкой и песнями.

Источник: DVD5 R5
Качество видео: DVDRip
Формат видео: AVI

Видео: 640x480 (4:3), 25 fps, XviD ~ 1245 kbps avg, 0.162 bit/pixel
Аудио: 48 kHz, MP3 2.0, 128 kbps

Раздача от:
Общее
Полное имя : Ocharovan.toboy.1958.DVDRip-745_[New-team]_by_AVP_Studio.avi
Формат : AVI
Формат/Информация : Audio Video Interleave
Размер файла : 745 Мбайт
Продолжительность : 1 ч. 15 м.
Общий поток : 1382 Кбит/сек
Программа кодирования : VirtualDubMod 1.5.10.3 | www.virtualdub-fr.org || (build 2550/release)
Библиотека кодирования : VirtualDubMod build 2550/release

Видео
Идентификатор : 0
Формат : MPEG-4 Visual
Профиль формата : Advanced Simple@L5
Параметр BVOP формата : 1
Параметр QPel формата : Нет
Параметр GMC формата : Без точки перехода
Параметр матрицы формата : Выборочная
Идентификатор кодека : XVID
Идентификатор кодека/Подсказка : XviD
Продолжительность : 1 ч. 15 м.
Битрейт : 1245 Кбит/сек
Ширина : 640 пикселей
Высота : 480 пикселей
Соотношение сторон : 4:3
Частота кадров : 25,000 кадров/сек
Цветовое пространство : YUV
Субдискретизация насыщенности : 4:2:0
Битовая глубина : 8 бит
Тип развёртки : Прогрессивная
Метод сжатия : С потерями
Бит/(Пиксели*Кадры) : 0.162
Размер потока : 671 Мбайт (90%)
Библиотека кодирования : XviD 73

Аудио
Идентификатор : 1
Формат : MPEG Audio
Версия формата : Version 1
Профиль формата : Layer 3
Идентификатор кодека : 55
Идентификатор кодека/Подсказка : MP3
Продолжительность : 1 ч. 15 м.
Вид битрейта : Постоянный
Битрейт : 128 Кбит/сек
Каналы : 2 канала
Частота : 48,0 КГц
Метод сжатия : С потерями
Размер потока : 69,0 Мбайт (9%)
Выравнивание : Соединение по промежуткам
Продолжительность промежутка : 40 мс. (1,00 видеокадр)
Время предзагрузки промежутка : 504 мс.
Библиотека кодирования : LAME3.99r
Настройки программы : -m s -V 4 -q 2 -lowpass 17 -b 128



Скачать Очарован тобой через торрент http://s018.radikal.ru/i510/1709/ce/c75bfd1211e0.png Скачать, смотреть онлайн Очарован тобой бесплантно в хорошем качестве Описание:Первая узбекская музыкальная комедия.Идет подбор актеров на главные роли нового музыкального фильма. С этой целью режиссер Абзалов ... 5 10 1
Info! Золотая раздача, скачанное не засчитывается.
Торрент: Зарегистрирован [2017-09-09 09:26] · скачан: 16 раз
Статус: √ проверено
Размер: 745 MB
Как cкачать? Как скачать Очарован тобой через торрент | UTorrent

% Раздел Тема Автор DL S | L
Кино СССР [ 1.09 GB ] Очарован тобой | | DVDRip-AVC от AVP Studio AVP Studio Скачать
1 | 0
Кино СССР [ 1.1 GB ] Очарован тобой | | DVDRip от AVP Studio AVP Studio Скачать
1 | 0

28-11-2019 20:33  

Отключить вcю реклaмy на сайте

    Дорогой пользователь! Огромная просьба, поблагодарите релизера, оцените раздачу и оставьте свои комментарий, если Вы скачали Очарован тобой через торрент бесплатно!!
    Комментировать посты могут только пользователи прошедшие не сложную регистрацию
    Показать сообщения:    


    Очарован тобой через торрент
    Скачать бесплатно Очарован тобой
    Очарован тобой скачать торрент
    Очарован тобой смотреть онлайн
    Cкачать фильм Очарован тобой бесплатно
    Очарован тобой скачать торрент в хорошем качестве
    Очарован тобой смотреть онлайн бесплатно в хорошем качестве
    Вы не можете начинать темы
    Вы не можете отвечать на сообщения
    Вы не можете редактировать свои сообщения
    Вы не можете удалять свои сообщения
    Вы не можете голосовать в опросах
    Вы не можете прикреплять файлы к сообщениям
    Вы можете скачивать файлы