1 сезон

3 сезон

iTunes

1

iTunes

DUB Netflix

iTunes

13

1 сезон

RePack

30

Deluxe

pack

Легкие деньги

ВАЖНО

ИГРА 18+

pack

RePack

MK11

RePack

jed

RePack

fifa19

RePack

RDR2

RePack

NEED FOR SPEED™ PAYBACK

4 сезон

9 сезон

Бесстыжие 9 сезон

Все сериалы

все сериалы на PB.wtf

RePack

FAR CRY 5

Anonymous, добрый день, мы не успеваем до 1 числа собрать деньги на оплату серверов, помогите нам пожалуйста в это трудное время. В качестве благодарности мы отключим Вам всю рекламу на сайте (укажите свой ник в строку Ваше имя)!

×
  
Magnet ссылка

Стратегия Оппенгеймера / Norman: The Moderate Rise and Tragic Fall of a New York Fixer (Джозеф Седар) [2016 г., Драма, триллер, HDRip, Профессиональный многоголосый закадровыйi "Tunes"] piratbit.org

Стратегия Оппенгеймера через торрент piratbit.org

Размер: 2.18 GB | Добавлен: 3 года 9 мес. назад | Торрент скачан:78 раз
Скачать  

12-09-2017 18:15 Стратегия Оппенгеймера Скачать торрент  

Стратегия Оппенгеймера / Norman: The Moderate Rise and Tragic Fall of a New York Fixer
Год выпуска: 2016
Страна: Израиль, США / Blackbird, Cold Iron Pictures, Movie Plus productions
Жанр: Драма, триллер
Продолжительность: 01:58:06
Перевод: Профессиональный многоголосый закадровыйi (iTunes)
  • Субтитры: Русские форсированные, на не переведенную речь и надписи - вшитые


  • Режиссер: Джозеф Седар

    rating

    В ролях: Ричард Гир, Лиор Ашкенази, Майкл Шин, Стив Бушеми, Йехуда Альмагор, Нета Рискин, Джош Чарльз, Дэн Стивенс, Харрис Юлин, Довале Гликман

    Описание: Уже немолодой Норман Оппенгеймер из кожи вон лезет, чтобы обзавестись полезными контактами и связями. Однажды ему везёт, и он завязывает личное знакомство с замминистра Израиля. Три года спустя этот политик становится премьер-министром, и жизнь Нормана резко меняется.

    Качество: HDRip
    Формат: AVI
    Видео кодек: XviD
    Аудио кодек: AC3
    Видео: 720x384 (1.88:1), 23.976 fps, XviD build 50 ~2248 kbps avg, 0.34 bit/pixel
    Аудио: 48 kHz, AC3 Dolby Digital, 3/2 (L,C,R,l,r) + LFE ch, ~384 kbps
    скриншот   скриншот   скриншот   скриншот  

    Общее
    Полное имя : F:\ФИЛЬМЫ\Стратегия Оппенгеймера.2016.HDRip.avi
    Формат : AVI
    Формат/Информация : Audio Video Interleave
    Профиль формата : OpenDML
    Размер файла : 2,18 Гбайт
    Продолжительность : 1 ч. 58 м.
    Общий поток : 2640 Кбит/сек
    Программа кодирования : VirtualDubMod 1.5.10.3 | www.virtualdub-fr.org || (build 2550/release)
    Библиотека кодирования : VirtualDubMod build 2550/release

    Видео
    Идентификатор : 0
    Формат : MPEG-4 Visual
    Профиль формата : Advanced Simple@L5
    Параметр BVOP формата : 1
    Параметр QPel формата : Нет
    Параметр GMC формата : Без точки перехода
    Параметр матрицы формата : Default (MPEG)
    Идентификатор кодека : XVID
    Идентификатор кодека/Подсказка : XviD
    Продолжительность : 1 ч. 58 м.
    Битрейт : 2244 Кбит/сек
    Ширина : 720 пикселей
    Высота : 384 пикселя
    Соотношение сторон : 1,85:1
    Частота кадров : 23,976 (24000/1001) кадра/сек
    Цветовое пространство : YUV
    Субдискретизация насыщенности : 4:2:0
    Битовая глубина : 8 бит
    Тип развёртки : Прогрессивная
    Метод сжатия : С потерями
    Бит/(Пиксели*Кадры) : 0.338
    Размер потока : 1,85 Гбайт (85%)
    Библиотека кодирования : XviD 1.2.1 (UTC 2008-12-04)

    Аудио
    Идентификатор : 1
    Формат : AC-3
    Формат/Информация : Audio Coding 3
    Параметр Endianness формата : Big
    Идентификатор кодека : 2000
    Продолжительность : 1 ч. 58 м.
    Вид битрейта : Постоянный
    Битрейт : 384 Кбит/сек
    Каналы : 6 каналов
    Расположение каналов : Front: L C R, Side: L R, LFE
    Частота : 48,0 КГц
    Частота кадров : 31,250 кадров/сек (1536 SPF)
    Битовая глубина : 16 бит
    Метод сжатия : С потерями
    Размер потока : 324 Мбайт (15%)
    Выравнивание : Разделение по промежуткам
    Продолжительность промежутка : 42 мс. (1,00 видеокадр)
    Время предзагрузки промежутка : 500 мс.
    ServiceKind/String : Complete Main

    piratbit.org



  • Скачать Стратегия Оппенгеймера через торрент https://pic1.kartinco.top/images/11/uxpoy.jpg Скачать фильм Стратегия Оппенгеймера через торрент бесплантно в хорошем качестве Описание: Уже немолодой Норман Оппенгеймер из кожи вон лезет, чтобы обзавестись полезными контактами и связями. Однажды ему везёт, и он ... 10 10 2
    Торрент: Зарегистрирован [2017-09-12 18:15] · скачан: 78 раз
    Статус: √ проверено
    Размер: 2.18 GB
    Как cкачать? Как скачать Стратегия Оппенгеймера через торрент | UTorrent

    28-11-2019 20:33  

    Отключить всю рекламу на сайте

      Дорогой пользователь! Огромная просьба, поблагодарите релизера, оцените раздачу и оставьте свои комментарий, если Вы скачали Стратегия Оппенгеймера через торрент бесплатно! Внесите свою лепту в развитие PiratBit!
      Комментировать посты могут только пользователи прошедшие не сложную регистрацию
      Показать сообщения:    

      Стратегия Оппенгеймера через торрент
      Скачать бесплатно Стратегия Оппенгеймера
      Стратегия Оппенгеймера скачать торрент
      Стратегия Оппенгеймера смотреть онлайн
      Cкачать фильм Стратегия Оппенгеймера бесплатно
      Стратегия Оппенгеймера скачать торрент в хорошем качестве
      Стратегия Оппенгеймера смотреть онлайн бесплатно в хорошем качестве


      Вы не можете начинать темы
      Вы не можете отвечать на сообщения
      Вы не можете редактировать свои сообщения
      Вы не можете удалять свои сообщения
      Вы не можете голосовать в опросах
      Вы не можете прикреплять файлы к сообщениям
      Вы можете скачивать файлы