Доктор Стрэндж

Лицензия

Добыча

Дубляж

Уэнсдэй

1 сезон

Тор

Дубляж

В эфире

Дубляж

Там, где раки поют

MVO

Властелин колец

1 сезон

Deluxe

pack

Рекомендуем

30

Пиратка

ВАЖНО

ВАЖНО

Ghostwire

Пиратка

jed

RePack

nioh2

RePack

RDR2

RePack

NEED FOR SPEED™ PAYBACK

RePack

скачать торрент

Кинопоиск HD

Острые козырьки 6 сезон

6 сезон

FAR CRY 6

RePack

скачать торрент

Лицензия

скачать торрент

MVO

1

1 сезон

скачать торрент

1 сезон

скачать торрент

Лицензия

  

Большая сделка / The Big Kahuna (Джон Свонбек) [1999, драма, BDRip 1080p ] VO (профессиональный)

Большая сделка через торрент piratbit.org

Размер: 11.64 GB | Добавлен: 5 лет 2 мес. назад | Торрент скачан:15 раз
Смотреть онлайн | Скачать   

13-09-2017 06:59 Большая сделка Скачать торрент  

Название: Большая сделка
Оригинальное название: The Big Kahuna
Год выпуска: 1999
Страна: США
Жанр: драма
Продолжительность: 01:30:56
Перевод: профессиональный одноголосый

Режиссер: Джон Свонбек
В ролях: Кевин Спейси, Денни ДеВито, Питер Фачинелли, Пол Даусон, Кристофер Донахью, Рон Комора, Фрэнк Л. Мессина, Джордж Ф. Миллер

Описание: Перед важной торговой конвенцией трое прожжённых дельцов встречаются в номере отеля, чтобы устроить приём для босса крупной компании. Они намерены любой ценой продать ему свой товар, надеясь обеспечить себе карьеру и безбедное будущее. Но эти опытные маклеры не подозревают, что впереди их ждёт не встреча с «большой шишкой», а беспощадный психологический поединок со своим прошлым и будущим...



Качество: BDRip 1080p
Формат: MKV
Видео: MPEG-4 AVC, 17.4 Mбит/с, 1920x1080, 23.976 кадр/с
Аудио 1: русский, AC3, 448 kbps, 6 ch [профессиональный одноголосый, Владимир Вихров]
Аудио 2: английский, AC3, 448 kbps, 6 ch, 48 kHz [оригинал]
Субтитры 1: русские
Субтитры 2: английские
Имеются неименованные главы/чаптеры.
Общее
Уникальный идентификатор : 205561096911256770403711782185787618671 (0x9AA5A08FCD5DA91690226B092CFE756F)
Полное имя : D:\Video\Большая сделка.1999.BDRip.1080p by msltel.mkv
Формат : Matroska
Версия формата : Version 4 / Version 2
Размер файла : 11,6 Гбайт
Продолжительность : 1 ч. 30 м.
Общий поток : 18,3 Мбит/сек
Название фильма : Rip by msltel
Дата кодирования : UTC 2017-09-13 05:10:13
Программа кодирования : mkvmerge v8.2.0 ('World of Adventure') 64bit
Библиотека кодирования : libebml v1.3.1 + libmatroska v1.4.2

Видео
Идентификатор : 1
Формат : AVC
Формат/Информация : Advanced Video Codec
Профиль формата : High@L4.1
Параметр CABAC формата : Да
Параметр RefFrames формата : 4 кадра
Идентификатор кодека : V_MPEG4/ISO/AVC
Продолжительность : 1 ч. 30 м.
Битрейт : 17,4 Мбит/сек
Ширина : 1920 пикселей
Высота : 1080 пикселей
Соотношение сторон : 16:9
Режим частоты кадров : Постоянный
Частота кадров : 23,976 (24000/1001) кадра/сек
Цветовое пространство : YUV
Субдискретизация насыщенности : 4:2:0
Битовая глубина : 8 бит
Тип развёртки : Прогрессивная
Бит/(Пиксели*Кадры) : 0.351
Размер потока : 11,1 Гбайт (95%)
Библиотека кодирования : x264 core 146 r2538 121396c
Настройки программы : cabac=1 / ref=4 / deblock=1:-3:-2 / analyse=0x3:0x113 / me=umh / subme=11 / psy=1 / psy_rd=1.00:0.15 / mixed_ref=1 / me_range=32 / chroma_me=1 / trellis=2 / 8x8dct=1 / cqm=0 / deadzone=21,11 / fast_pskip=0 / chroma_qp_offset=-3 / threads=6 / lookahead_threads=1 / sliced_threads=0 / nr=0 / decimate=1 / interlaced=0 / bluray_compat=0 / constrained_intra=0 / bframes=11 / b_pyramid=2 / b_adapt=2 / b_bias=0 / direct=1 / weightb=1 / open_gop=0 / weightp=2 / keyint=230 / keyint_min=23 / scenecut=40 / intra_refresh=0 / rc_lookahead=40 / rc=crf / mbtree=0 / crf=20.0 / qcomp=0.60 / qpmin=0 / qpmax=69 / qpstep=4 / vbv_maxrate=62500 / vbv_bufsize=78125 / crf_max=0.0 / nal_hrd=none / filler=0 / ip_ratio=1.40 / pb_ratio=1.30 / aq=1:1.00
Язык : English
Default : Да
Forced : Нет

Аудио #1
Идентификатор : 2
Формат : AC-3
Формат/Информация : Audio Coding 3
Параметр Endianness формата : Big
Идентификатор кодека : A_AC3
Продолжительность : 1 ч. 30 м.
Вид битрейта : Постоянный
Битрейт : 448 Кбит/сек
Каналы : 6 каналов
Расположение каналов : Front: L C R, Side: L R, LFE
Частота : 48,0 КГц
Частота кадров : 31,250 кадров/сек (1536 SPF)
Битовая глубина : 16 бит
Метод сжатия : С потерями
Размер потока : 290 Мбайт (2%)
Заголовок : Владимир Вихров
Язык : Russian
ServiceKind/String : Complete Main
Default : Да
Forced : Нет

Аудио #2
Идентификатор : 3
Формат : AC-3
Формат/Информация : Audio Coding 3
Параметр Endianness формата : Big
Идентификатор кодека : A_AC3
Продолжительность : 1 ч. 30 м.
Вид битрейта : Постоянный
Битрейт : 448 Кбит/сек
Каналы : 6 каналов
Расположение каналов : Front: L C R, Side: L R, LFE
Частота : 48,0 КГц
Частота кадров : 31,250 кадров/сек (1536 SPF)
Битовая глубина : 16 бит
Метод сжатия : С потерями
Размер потока : 290 Мбайт (2%)
Заголовок : original
Язык : English
ServiceKind/String : Complete Main
Default : Нет
Forced : Нет

Текст #1
Идентификатор : 4
Формат : UTF-8
Идентификатор кодека : S_TEXT/UTF8
Идентификатор кодека/Информация : UTF-8 Plain Text
Продолжительность : 1 ч. 29 м.
Битрейт : 122 бит/сек
ElementCount : 1284
Размер потока : 79,7 Кбайт (0%)
Заголовок : русские
Язык : Russian
Default : Нет
Forced : Нет

Текст #2
Идентификатор : 5
Формат : UTF-8
Идентификатор кодека : S_TEXT/UTF8
Идентификатор кодека/Информация : UTF-8 Plain Text
Продолжительность : 1 ч. 29 м.
Битрейт : 109 бит/сек
ElementCount : 1573
Размер потока : 71,5 Кбайт (0%)
Заголовок : английские
Язык : English
Default : Нет
Forced : Нет

Меню
00:00:00.000 : :Chapter 01
00:06:01.610 : :Chapter 02
00:10:49.731 : :Chapter 03
00:17:53.195 : :Chapter 04
00:22:33.559 : :Chapter 05
00:28:07.477 : :Chapter 06
00:32:28.613 : :Chapter 07
00:38:13.163 : :Chapter 08
00:44:47.559 : :Chapter 09
00:50:16.554 : :Chapter 10
00:54:26.054 : :Chapter 11
00:59:05.625 : :Chapter 12
01:05:26.338 : :Chapter 13
01:11:10.682 : :Chapter 14
01:18:37.170 : :Chapter 15
01:24:46.872 : :Chapter 16
01:30:56.242 : :Chapter 17



Скачать Большая сделка через торрент http://s002.radikal.ru/i198/1709/3e/b7ddd4cbbfe2.jpg Скачать, смотреть онлайн Большая сделка бесплантно в хорошем качестве Описание: Перед важной торговой конвенцией трое прожжённых дельцов встречаются в номере отеля, чтобы устроить приём для босса крупной ... 5.5 10 2
Info! Золотая раздача, скачанное не засчитывается.
Торрент: Зарегистрирован [2017-09-13 06:59] · скачан: 15 раз
Статус: √ проверено
Размер: 11.64 GB
Как cкачать? Как скачать Большая сделка через торрент | UTorrent

% Раздел Тема Автор DL S | L
Фильмы [HD 720p, 1080p] (Звук Cam, VO, DVO) [ 4.8 GB ] Большая сделка / The Big Kahuna | | 720p msltel Скачать
1 | 0

28-11-2019 20:33  


Отключить вcю реклaмy на сайте, в т.ч. и в плеере онлайн просмотра!

    Дорогой пользователь! Огромная просьба, поблагодарите релизера, оцените раздачу и оставьте свои комментарий, если Вы скачали Большая сделка через торрент бесплатно!!
    Комментировать посты могут только пользователи прошедшие не сложную регистрацию
    Показать сообщения:    


    Большая сделка через торрент
    Скачать бесплатно Большая сделка
    Большая сделка скачать торрент
    Большая сделка смотреть онлайн
    Cкачать фильм Большая сделка бесплатно
    Большая сделка скачать торрент в хорошем качестве
    Большая сделка смотреть онлайн бесплатно в хорошем качестве
    Вы не можете начинать темы
    Вы не можете отвечать на сообщения
    Вы не можете редактировать свои сообщения
    Вы не можете удалять свои сообщения
    Вы не можете голосовать в опросах
    Вы не можете прикреплять файлы к сообщениям
    Вы можете скачивать файлы
    Большая сделка / The Big Kahuna [1999, драма, BDRip 1080p ] VO смотреть онлайн, скачать торрент picoco.icu