Лицензия

MVO

1

1 сезон

Лицензия

Лицензия

13

MVO

1 сезон

Deluxe Edition

pack

Рекомендуем

30

Repack

ВАЖНО

ВАЖНО

Ghostwire

RePack

jed

RePack

fifa19

RePack

RDR2

RePack

NEED FOR SPEED™ PAYBACK

RePack

Кинопоиск HD

 Острые козырьки 6 сезон

6 сезон

FAR CRY 6

RePack

Лицензия

MVO

1

1 сезон

1 сезон

Лицензия

  

Атаман кодр (Михаил Калик, Борис Рыцарев, Ольга Улицкая) [1958, СССР, драма, VHSRip-AVC от AVP Studio]

Атаман кодр через торрент piratbit.org

Размер: 744 MB | Добавлен: 5 лет назад | Торрент скачан:29 раз
Смотреть онлайн Атаман кодр | Скачать   

13-09-2017 08:55 Атаман кодр Скачать торрент  

Атаман кодр
Страна: СССР
Производство: Молдова-фильм

Жанр: драма
Год выпуска: 1958
Продолжительность: 01:12:58

Перевод: Не требуется
Cубтитры: нет
Оригинальная аудиодорожка: русский

Режиссер: Михаил Калик, Борис Рыцарев, Ольга Улицкая

В ролях:
Лев Поляков, Инна Кмит, Александр Ширвиндт, Микаэла Дроздовская, Януш Казибеев, А. Миронов, Артур Нищёнкин, Андрей Нагиц, Константин Крамарчук, Евгения Ларионова, Анатолий Ларионов, Константин Константинов, Сергей Некрасов, Пётр Репнин...
Об актёрах подробней

Описание:
1830-е, Молдавия. Конюх Тодор полюбил горничную своего барина — Юстинию. Попав на каторжные работы, Тодор организовал побег и с группой единомышленников укрылся в кодрах. Так под руководством атамана Тодора Тобултока молдавские повстанцы, назвавшие себя гайдуками, начали борьбу против помещичьего произвола.

Источник: VHS
Качество видео: VHSRip-AVC
Формат видео: MKV

Видео: 704->760x572 (4:3), 25 fps, H264 ~ 1296 kbps avg, 0.129 bit/pixel
Аудио: 48 kHz, MP3 2.0, 128 kbps

Раздача от:
Общее
Полное имя : Ataman.kodr.1958.VHSRip-AVC_[New-team]_by_AVP_Studio.mkv
Формат : Matroska
Версия формата : Version 2
Размер файла : 744 Мбайт
Продолжительность : 1 ч. 12 м.
Общий поток : 1426 Кбит/сек
Дата кодирования : UTC 2017-09-12 11:24:30
Программа кодирования : mkvmerge v6.1.0 ('Old Devil') built on Mar 4 2013 09:10:42
Библиотека кодирования : libebml v1.3.0 + libmatroska v1.4.0

Видео
Идентификатор : 1
Формат : AVC
Формат/Информация : Advanced Video Codec
Профиль формата : High@L4.1
Параметр CABAC формата : Да
Параметр RefFrames формата : 10 кадров
Идентификатор кодека : V_MPEG4/ISO/AVC
Продолжительность : 1 ч. 12 м.
Битрейт : 1296 Кбит/сек
Ширина : 704 пикселя
Высота : 572 пикселя
Соотношение сторон : 4:3
Режим частоты кадров : Постоянный
Частота кадров : 25,000 кадров/сек
Цветовое пространство : YUV
Субдискретизация насыщенности : 4:2:0
Битовая глубина : 8 бит
Тип развёртки : Прогрессивная
Бит/(Пиксели*Кадры) : 0.129
Размер потока : 663 Мбайт (89%)
Библиотека кодирования : x264 core 130 r2273 b3065e6
Настройки программы : cabac=1 / ref=10 / deblock=1:-2:-1 / analyse=0x3:0x113 / me=umh / subme=10 / psy=1 / psy_rd=1.00:0.00 / mixed_ref=1 / me_range=32 / chroma_me=1 / trellis=2 / 8x8dct=1 / cqm=0 / deadzone=21,11 / fast_pskip=1 / chroma_qp_offset=-2 / threads=6 / lookahead_threads=1 / sliced_threads=0 / nr=0 / decimate=0 / interlaced=0 / bluray_compat=0 / constrained_intra=0 / bframes=8 / b_pyramid=2 / b_adapt=2 / b_bias=0 / direct=3 / weightb=1 / open_gop=0 / weightp=2 / keyint=250 / keyint_min=25 / scenecut=40 / intra_refresh=0 / rc=2pass / mbtree=0 / bitrate=1296 / ratetol=1.0 / qcomp=0.60 / qpmin=0 / qpmax=69 / qpstep=4 / cplxblur=20.0 / qblur=0.5 / ip_ratio=1.40 / pb_ratio=1.30 / aq=1:1.00
Default : Да
Forced : Нет

Аудио
Идентификатор : 2
Формат : MPEG Audio
Версия формата : Version 1
Профиль формата : Layer 3
Идентификатор кодека : A_MPEG/L3
Идентификатор кодека/Подсказка : MP3
Продолжительность : 1 ч. 12 м.
Вид битрейта : Постоянный
Битрейт : 128 Кбит/сек
Каналы : 2 канала
Частота : 48,0 КГц
Метод сжатия : С потерями
Размер потока : 66,8 Мбайт (9%)
Библиотека кодирования : LAME3.99r
Настройки программы : -m s -V 4 -q 2 -lowpass 17 -b 128
Default : Да
Forced : Нет



Скачать Атаман кодр через торрент http://s019.radikal.ru/i636/1709/fe/62dd8bc92de0.png Скачать, смотреть онлайн Атаман кодр бесплантно в хорошем качестве Описание:1830-е, Молдавия. Конюх Тодор полюбил горничную своего барина — Юстинию. Попав на каторжные работы, Тодор организовал побег и с ... 5.5 10 2
Info! Золотая раздача, скачанное не засчитывается.
Торрент: Зарегистрирован [2017-09-13 08:55] · скачан: 29 раз
Статус: √ проверено
Размер: 744 MB
Как cкачать? Как скачать Атаман кодр через торрент | UTorrent

% Раздел Тема Автор DL S | L
Кино СССР [ 746 MB ] Атаман кодр | | Атаман кодр (Михаил Калик, Борис Рыцарев, Ольга Улицкая AVP Studio Скачать
1 | 0

28-11-2019 20:33  

Отключить вcю реклaмy на сайте

    Дорогой пользователь! Огромная просьба, поблагодарите релизера, оцените раздачу и оставьте свои комментарий, если Вы скачали Атаман кодр через торрент бесплатно!!
    Комментировать посты могут только пользователи прошедшие не сложную регистрацию
    Показать сообщения:    


    Атаман кодр через торрент
    Скачать бесплатно Атаман кодр
    Атаман кодр скачать торрент
    Атаман кодр смотреть онлайн
    Cкачать фильм Атаман кодр бесплатно
    Атаман кодр скачать торрент в хорошем качестве
    Атаман кодр смотреть онлайн бесплатно в хорошем качестве
    Вы не можете начинать темы
    Вы не можете отвечать на сообщения
    Вы не можете редактировать свои сообщения
    Вы не можете удалять свои сообщения
    Вы не можете голосовать в опросах
    Вы не можете прикреплять файлы к сообщениям
    Вы можете скачивать файлы