2 сезон

iTunes

WEBRip

1

2 сезон

iTunes

1 сезон

1 сезон

RePack

30

Новинка

ВАЖНО

ИГРА 18+

pack

RePack

MK11
pack

Легкие деньги

RePack

jed

RePack

fifa19

RePack

RDR2

RePack

NEED FOR SPEED™ PAYBACK

4 сезон

9 сезон

Бесстыжие 9 сезон

Все сериалы

все сериалы на PB.wtf

RePack

FAR CRY 5

Anonymous, добрый день, мы не успеваем собрать деньги на оплату серверов за февраль, помогите нам пожалуйста в это трудное время. В качестве благодарности мы отключим Вам всю рекламу на сайте (укажите свой ник в строку Ваше имя)!

×
  
Magnet ссылка

Телохранитель киллера / The Hitman's Bodyguard (Патрик Хьюз) [2017 г., боевик, комедия, WEBRip 1080p] [Ukr DUB] [Line] piratbit.org

Телохранитель киллера через торрент piratbit.org

Размер: 7.56 GB | Добавлен: 3 года 5 мес. назад | Торрент скачан:143 раза
Скачать  

13-09-2017 18:20 Телохранитель киллера Скачать торрент  

Телохранитель киллера / The Hitman's Bodyguard
Год выхода: 2017
Жанр: Боевик, комедия
Страна: США, Китай, Болгария, Нидерланды
Студия: Campbell Grobman Films, Cristal Pictures, East Light Media, Millennium Films, Nu Boyana Film Studios, Skydance Media, TDMP
Продолжительность: 01:58:11
Перевод: Украинский (дублированный)
Субтитры: английские

Режиссер: Патрик Хьюз

В ролях: Райан Рейнольдс, Сэмюэл Л. Джексон, Элоди Юнг, Сальма Хайек, Гэри Олдман, Жоаки де Алмейда, Юрий Колокольников, Тине Жустра, Сэм Хэзелдайн, Ричард Э. Грант

О фильме:
Престарелый киллер (Сэмюэл Л. Джексон), известный своим несносным нравом, решает дать показания против бывших нанимателей. Однако сам он уже не может обеспечить себе безопасность, поэтому обращается за помощью к молодому и способному телохранителю – агенту по защите свидетелей Майклу Брюсу (Райан Рейнольдс). В течение 24 часов не испытывающим друг к другу никакой симпатии героям предстоит действовать сообща, чтобы сбежать из Англии в Гаагу. Вскоре ситуация осложняется еще больше, когда на пути у них возникает кровожадный восточно-европейский диктатор Владислав Духович (Гэри Олдман).

rating

Качество: WEBRip 1080p
Кодек: MPEG-4 AVC
Видео: AVC, 8578 Кбит/с, 1920x800, 23,976 fps
Звук: 48.0 KHz, AC3, 2 ch, 192 Кбит/с - Ukr DUB
Звук: 48.0 KHz, AC3, 6 ch, 384 Кбит/с - Eng
General
Unique ID : 205064225177492349656784605167308285447 (0x9A45EEE4D4D61F3F8FEE4D5BA2B8A607)
Complete name : F:\The Hitman's Bodyguard (2017) WEBRip 1080p [UKR_ENG] [Hurtom].mkv
Format : Matroska
Format version : Version 4 / Version 2
File size : 7.56 GiB
Duration : 1h 58mn
Overall bit rate : 9 154 Kbps
Encoded date : UTC 2017-09-13 17:47:13
Writing application : mkvmerge v15.0.0 ('Duel with the Devil') 64-bit
Writing library : libebml v1.3.5 + libmatroska v1.4.5
Attachements : cover.jpg

Video
ID : 1
Format : AVC
Format/Info : Advanced Video Codec
Format profile : High@L4.1
Format settings, CABAC : Yes
Format settings, ReFrames : 5 frames
Codec ID : V_MPEG4/ISO/AVC
Duration : 1h 58mn
Bit rate : 8 578 Kbps
Width : 1 920 pixels
Height : 800 pixels
Display aspect ratio : 2.40:1
Frame rate mode : Constant
Frame rate : 23.976 fps
Color space : YUV
Chroma subsampling : 4:2:0
Bit depth : 8 bits
Scan type : Progressive
Bits/(Pixel*Frame) : 0.233
Stream size : 6.93 GiB (92%)
Writing library : x264 core 148 r2744 b97ae06
Encoding settings : cabac=1 / ref=5 / deblock=1:-3:-3 / analyse=0x3:0x133 / me=umh / subme=10 / psy=1 / psy_rd=1.00:0.00 / mixed_ref=1 / me_range=24 / chroma_me=1 / trellis=2 / 8x8dct=1 / cqm=0 / deadzone=21,11 / fast_pskip=1 / chroma_qp_offset=-2 / threads=6 / lookahead_threads=1 / sliced_threads=0 / nr=0 / decimate=1 / interlaced=0 / bluray_compat=0 / constrained_intra=0 / bframes=14 / b_pyramid=2 / b_adapt=2 / b_bias=2 / direct=3 / weightb=1 / open_gop=0 / weightp=2 / keyint=240 / keyint_min=23 / scenecut=40 / intra_refresh=0 / rc_lookahead=60 / rc=2pass / mbtree=1 / bitrate=8578 / ratetol=1.0 / qcomp=0.60 / qpmin=0 / qpmax=69 / qpstep=4 / cplxblur=20.0 / qblur=0.5 / vbv_maxrate=50000 / vbv_bufsize=62500 / nal_hrd=none / filler=0 / ip_ratio=1.40 / aq=1:1.00
Language : English
Default : Yes
Forced : No

Audio #1
ID : 2
Format : AC-3
Format/Info : Audio Coding 3
Mode extension : CM (complete main)
Format settings, Endianness : Big
Codec ID : A_AC3
Duration : 1h 58mn
Bit rate mode : Constant
Bit rate : 192 Kbps
Channel(s) : 2 channels
Channel positions : Front: L R
Sampling rate : 48.0 KHz
Compression mode : Lossy
Stream size : 162 MiB (2%)
Title : AC3 2.0 @ 192 kbps - DUB, Line
Language : Ukrainian
Default : Yes
Forced : Yes

Audio #2
ID : 3
Format : AC-3
Format/Info : Audio Coding 3
Mode extension : CM (complete main)
Format settings, Endianness : Big
Codec ID : A_AC3
Duration : 1h 58mn
Bit rate mode : Constant
Bit rate : 384 Kbps
Channel(s) : 6 channels
Channel positions : Front: L C R, Side: L R, LFE
Sampling rate : 48.0 KHz
Compression mode : Lossy
Stream size : 325 MiB (4%)
Title : AC3 5.1 @ 384 kbps - Original
Language : English
Default : No
Forced : No

Text
ID : 4
Format : UTF-8
Codec ID : S_TEXT/UTF8
Codec ID/Info : UTF-8 Plain Text
Title : Full
Language : English
Default : No
Forced : No
скриншот   скриншот   скриншот  
piratbit.org



Скачать Телохранитель киллера через торрент http://s019.radikal.ru/i606/1709/bf/5f3426de42b7.jpg Скачать фильм Телохранитель киллера через торрент бесплантно в хорошем качестве О фильме: Престарелый киллер (Сэмюэл Л. Джексон), известный своим несносным нравом, решает дать показания против бывших нанимателей. Однако ... 10 10 3
Торрент: Зарегистрирован [2017-09-13 18:20] · скачан: 143 раз
Статус: T временная
Размер: 7.56 GB
Как cкачать? Как скачать Телохранитель киллера через торрент | UTorrent

28-11-2019 20:33  

Отключить всю рекламу на сайте

    Дорогой пользователь! Огромная просьба, поблагодарите релизера, оцените раздачу и оставьте свои комментарий, если Вы скачали Телохранитель киллера через торрент бесплатно! Внесите свою лепту в развитие PiratBit!
    Комментировать посты могут только пользователи прошедшие не сложную регистрацию
    Показать сообщения:    

    Телохранитель киллера через торрент
    Скачать бесплатно Телохранитель киллера
    Телохранитель киллера скачать торрент
    Телохранитель киллера смотреть онлайн
    Cкачать фильм Телохранитель киллера бесплатно
    Телохранитель киллера скачать торрент в хорошем качестве
    Телохранитель киллера смотреть онлайн бесплатно в хорошем качестве


    Вы не можете начинать темы
    Вы не можете отвечать на сообщения
    Вы не можете редактировать свои сообщения
    Вы не можете удалять свои сообщения
    Вы не можете голосовать в опросах
    Вы не можете прикреплять файлы к сообщениям
    Вы можете скачивать файлы