Лицензия

MVO

1

1 сезон

Лицензия

Лицензия

13

MVO

1 сезон

Deluxe Edition

pack

Рекомендуем

30

Repack

ВАЖНО

ВАЖНО

Ghostwire

RePack

jed

RePack

fifa19

RePack

RDR2

RePack

NEED FOR SPEED™ PAYBACK

RePack

Кинопоиск HD

 Острые козырьки 6 сезон

6 сезон

FAR CRY 6

RePack

Лицензия

MVO

1

1 сезон

1 сезон

Лицензия

  

Наш корреспондент (Анатолий Граник) [1958, СССР, киноповесть, VHSRip от AVP Studio]

Наш корреспондент через торрент piratbit.org

Размер: 1.09 GB | Добавлен: 5 лет назад | Торрент скачан:14 раз
Смотреть онлайн Наш корреспондент | Скачать   

14-09-2017 08:18 Наш корреспондент Скачать торрент  

Наш корреспондент
Страна: СССР
Производство: Ленфильм

Жанр: киноповесть
Год выпуска: 1958
Продолжительность: 01:35:00

Перевод: Не требуется
Cубтитры: нет
Оригинальная аудиодорожка: русский

Режиссер: Анатолий Граник

В ролях:
Нелли Подгорная, Инна Макарова, Феликс Раздьяконов, Павел Павленко, Ролан Быков, Виталий Коняев, Владимир Корецкий...
Об актёрах подробней

Описание:
Сотрудница редакции провинциальной газеты Татьяна Никитина приезжает в Москву и становится журналисткой одной из центральных газет. Разьезжая по всей стране, она пишет фельетоны и заметки, обретает друзей и врагов, находит и не теряет любимых…

Источник: S-VHS
Качество видео: VHSRip
Формат видео: AVI

Видео: 704x528 (4:3), 25 fps, XviD ~ 1440 kbps avg, 0.155 bit/pixel
Аудио: 48 kHz, Dolby Digital AC3 2.0, 192 kbps

Раздача от:
Общее
Полное имя : Nash.korrespondent.1958.VHSRip_[New-team]_by_AVP_Studio.avi
Формат : AVI
Формат/Информация : Audio Video Interleave
Размер файла : 1,09 Гбайт
Продолжительность : 1 ч. 35 м.
Общий поток : 1642 Кбит/сек
Программа кодирования : VirtualDubMod 1.5.10.3 | www.virtualdub-fr.org || (build 2550/release)
Библиотека кодирования : VirtualDubMod build 2550/release

Видео
Идентификатор : 0
Формат : MPEG-4 Visual
Профиль формата : Advanced Simple@L5
Параметр BVOP формата : 1
Параметр QPel формата : Нет
Параметр GMC формата : Без точки перехода
Параметр матрицы формата : Выборочная
Идентификатор кодека : XVID
Идентификатор кодека/Подсказка : XviD
Продолжительность : 1 ч. 35 м.
Битрейт : 1440 Кбит/сек
Ширина : 704 пикселя
Высота : 528 пикселей
Соотношение сторон : 4:3
Частота кадров : 25,000 кадров/сек
Цветовое пространство : YUV
Субдискретизация насыщенности : 4:2:0
Битовая глубина : 8 бит
Тип развёртки : Прогрессивная
Метод сжатия : С потерями
Бит/(Пиксели*Кадры) : 0.155
Размер потока : 979 Мбайт (88%)
Библиотека кодирования : XviD 73

Аудио
Идентификатор : 1
Формат : AC-3
Формат/Информация : Audio Coding 3
Параметр Endianness формата : Big
Идентификатор кодека : 2000
Продолжительность : 1 ч. 35 м.
Вид битрейта : Постоянный
Битрейт : 192 Кбит/сек
Каналы : 2 канала
Расположение каналов : Front: L R
Частота : 48,0 КГц
Частота кадров : 31,250 кадров/сек (1536 SPF)
Битовая глубина : 16 бит
Метод сжатия : С потерями
Размер потока : 130 Мбайт (12%)
Выравнивание : Разделение по промежуткам
Продолжительность промежутка : 40 мс. (1,00 видеокадр)
Время предзагрузки промежутка : 500 мс



Скачать Наш корреспондент через торрент http://s018.radikal.ru/i508/1709/74/14c52b628584.png Скачать, смотреть онлайн Наш корреспондент бесплантно в хорошем качестве Описание:Сотрудница редакции провинциальной газеты Татьяна Никитина приезжает в Москву и становится журналисткой одной из центральных ... 10 10 1
Info! Золотая раздача, скачанное не засчитывается.
Торрент: Зарегистрирован [2017-09-14 08:18] · скачан: 14 раз
Статус: √ проверено
Размер: 1.09 GB
Как cкачать? Как скачать Наш корреспондент через торрент | UTorrent

% Раздел Тема Автор DL S | L
Кино СССР [ 1.09 GB ] Наш корреспондент | | Наш корреспондент (Анатолий Граник AVP Studio Скачать
1 | 0

28-11-2019 20:33  

Отключить вcю реклaмy на сайте

    Дорогой пользователь! Огромная просьба, поблагодарите релизера, оцените раздачу и оставьте свои комментарий, если Вы скачали Наш корреспондент через торрент бесплатно!!
    Комментировать посты могут только пользователи прошедшие не сложную регистрацию
    Показать сообщения:    


    Наш корреспондент через торрент
    Скачать бесплатно Наш корреспондент
    Наш корреспондент скачать торрент
    Наш корреспондент смотреть онлайн
    Cкачать фильм Наш корреспондент бесплатно
    Наш корреспондент скачать торрент в хорошем качестве
    Наш корреспондент смотреть онлайн бесплатно в хорошем качестве
    Вы не можете начинать темы
    Вы не можете отвечать на сообщения
    Вы не можете редактировать свои сообщения
    Вы не можете удалять свои сообщения
    Вы не можете голосовать в опросах
    Вы не можете прикреплять файлы к сообщениям
    Вы можете скачивать файлы