Лицензия

MVO

1

1 сезон

Лицензия

Лицензия

13

MVO

1 сезон

Deluxe Edition

pack

Рекомендуем

30

Repack

ВАЖНО

ВАЖНО

Ghostwire

RePack

jed

RePack

fifa19

RePack

RDR2

RePack

NEED FOR SPEED™ PAYBACK

RePack

Кинопоиск HD

 Острые козырьки 6 сезон

6 сезон

FAR CRY 6

RePack

Лицензия

MVO

1

1 сезон

1 сезон

Лицензия

  

Голубая стрела (Леонид Эстрин) [1958, СССР, приключения, шпионский фильм, DVDRip от AVP Studio]

Голубая стрела через торрент piratbit.org

Размер: 744 MB | Добавлен: 5 лет назад | Торрент скачан:21 раз
Смотреть онлайн Голубая стрела | Скачать   

16-09-2017 11:10 Голубая стрела Скачать торрент  

Голубая стрела
Страна: СССР
Производство: Киевская студия художественных фильмов им. А. П. Довженко

Жанр: приключения, шпионский фильм
Год выпуска: 1958
Продолжительность: 01:28:11

Перевод: Не требуется
Cубтитры: нет
Оригинальная аудиодорожка: русский

Режиссер: Леонид Эстрин

В ролях:
Андрей Гончаров (II), Генрих Осташевский, Николай Муравьёв (II), Константин Барташевич, Павел Луспекаев, Анатолий Алексеев, Алексей Максимов, Юрий Боголюбов, Анвар Тураев, Анатолий Кокорин, Неонила Гнеповская, Борис Новиков, Иван Переверзев, Александра Кузнецова (II), Владимир Волчик, Алексей Бахарь...
Об актёрах подробней

Описание:
По одноименной повести Владимира Черносвитова.
На крымском пляже техник-лейтенант Дудник по своему ротозейству выбалтывает любовнице время проведения испытаний новой модели реактивного истребителя. А женщина оказалась иностранной шпионкой, которая специально познакомилась с офицером с аэродрома...

Источник: DVD5 R5
Качество видео: DVDRip
Формат видео: AVI

Видео: 640x480 (4:3), 25 fps, XviD ~ 1042 kbps avg, 0.136 bit/pixel
Аудио: 48 kHz, MP3 2.0, 128 kbps

Раздача от:
Общее
Полное имя : Golubaya.strela.1958.DVDRip-745_[New-team]_by_AVP_Studio.avi
Формат : AVI
Формат/Информация : Audio Video Interleave
Размер файла : 744 Мбайт
Продолжительность : 1 ч. 28 м.
Общий поток : 1180 Кбит/сек
Программа кодирования : VirtualDubMod 1.5.10.3 | www.virtualdub-fr.org || (build 2550/release)
Библиотека кодирования : VirtualDubMod build 2550/release

Видео
Идентификатор : 0
Формат : MPEG-4 Visual
Профиль формата : Advanced Simple@L5
Параметр BVOP формата : 1
Параметр QPel формата : Нет
Параметр GMC формата : Без точки перехода
Параметр матрицы формата : Выборочная
Идентификатор кодека : XVID
Идентификатор кодека/Подсказка : XviD
Продолжительность : 1 ч. 28 м.
Битрейт : 1042 Кбит/сек
Ширина : 640 пикселей
Высота : 480 пикселей
Соотношение сторон : 4:3
Частота кадров : 25,000 кадров/сек
Цветовое пространство : YUV
Субдискретизация насыщенности : 4:2:0
Битовая глубина : 8 бит
Тип развёртки : Прогрессивная
Метод сжатия : С потерями
Бит/(Пиксели*Кадры) : 0.136
Размер потока : 657 Мбайт (88%)
Библиотека кодирования : XviD 73

Аудио
Идентификатор : 1
Формат : MPEG Audio
Версия формата : Version 1
Профиль формата : Layer 3
Идентификатор кодека : 55
Идентификатор кодека/Подсказка : MP3
Продолжительность : 1 ч. 28 м.
Вид битрейта : Постоянный
Битрейт : 128 Кбит/сек
Каналы : 2 канала
Частота : 48,0 КГц
Метод сжатия : С потерями
Размер потока : 80,7 Мбайт (11%)
Выравнивание : Соединение по промежуткам
Продолжительность промежутка : 40 мс. (1,00 видеокадр)
Время предзагрузки промежутка : 504 мс.
Библиотека кодирования : LAME3.99r
Настройки программы : -m s -V 4 -q 2 -lowpass 17 -b 128



Скачать Голубая стрела через торрент http://s019.radikal.ru/i631/1709/6c/19cc9fe74fc6.png Скачать, смотреть онлайн Голубая стрела бесплантно в хорошем качестве Описание:По одноименной повести Владимира Черносвитова.На крымском пляже техник-лейтенант Дудник по своему ротозейству выбалтывает ... 5 10 1
Info! Золотая раздача, скачанное не засчитывается.
Торрент: Зарегистрирован [2017-09-16 11:10] · скачан: 21 раз
Статус: √ проверено
Размер: 744 MB
Как cкачать? Как скачать Голубая стрела через торрент | UTorrent

% Раздел Тема Автор DL S | L
Кино СССР [ 1.09 GB ] Голубая стрела | | DVDRip-AVC от AVP Studio AVP Studio Скачать
1 | 0
Кино СССР [ 1.09 GB ] Голубая стрела | | DVDRip от AVP Studio AVP Studio Скачать
1 | 0

28-11-2019 20:33  

Отключить вcю реклaмy на сайте

    Дорогой пользователь! Огромная просьба, поблагодарите релизера, оцените раздачу и оставьте свои комментарий, если Вы скачали Голубая стрела через торрент бесплатно!!
    Комментировать посты могут только пользователи прошедшие не сложную регистрацию
    Показать сообщения:    


    Голубая стрела через торрент
    Скачать бесплатно Голубая стрела
    Голубая стрела скачать торрент
    Голубая стрела смотреть онлайн
    Cкачать фильм Голубая стрела бесплатно
    Голубая стрела скачать торрент в хорошем качестве
    Голубая стрела смотреть онлайн бесплатно в хорошем качестве
    Вы не можете начинать темы
    Вы не можете отвечать на сообщения
    Вы не можете редактировать свои сообщения
    Вы не можете удалять свои сообщения
    Вы не можете голосовать в опросах
    Вы не можете прикреплять файлы к сообщениям
    Вы можете скачивать файлы