Доктор Стрэндж

Лицензия

Добыча

MVO

Дом дракона

1 сезон

Тор

Лицензия

Мэверик

Лицензия

Там, где раки поют

MVO

Властелин колец

1 сезон

Ultimate

pack

Рекомендуем

30

Repack

ВАЖНО

ВАЖНО

Ghostwire

RePack

jed

RePack

nioh2

RePack

RDR2

RePack

NEED FOR SPEED™ PAYBACK

RePack

скачать торрент

Кинопоиск HD

Острые козырьки 6 сезон

6 сезон

FAR CRY 6

RePack

скачать торрент

Лицензия

скачать торрент

MVO

1

1 сезон

скачать торрент

1 сезон

скачать торрент

Лицензия

  

Дожди (Сергей Казаков) [1958, СССР, драма, SATRip-AVC от AVP Studio]

Дожди через торрент piratbit.org

Размер: 745 MB | Добавлен: 5 лет назад | Торрент скачан:39 раз
Смотреть онлайн | Скачать   

17-09-2017 07:51 Дожди Скачать торрент  

Дожди
Страна: СССР
Производство: Мосфильм

Жанр: драма
Год выпуска: 1958
Продолжительность: 00:51:12

Перевод: Не требуется
Cубтитры: нет
Оригинальная аудиодорожка: русский

Режиссер: Сергей Казаков

В ролях:
Лидия Сухаревская, Виктор Кольцов (Кутаков), Михаил Кузнецов, Михаил Глузский, Елена Максимова, Ольга Дзисько, Михаил Трояновский, Борис Сазонов, Мария Попова-Кайсарова...
Об актёрах подробней

Описание:
Телефильм по одноименному рассказу Сергея Антонова.
На строительстве небольшого моста срывается план работ — вот уже две недели идут проливные дожди, не хватает песка и гравия. Начальник строительства и Валентина Георгиевна (Лидия Сухаревская) , его преданная секретарша, тоскуют по хорошей погоде и ждут перемен. И перемены действительно наступают. Ивана Семеновича снимают с работы и вместо него присылают нового — энергичного, грубоватого начальника со смешной фамилией — Непейвода (Михаил Кузнецов). Обстановка на строительстве резко меняется: новый начальник сумел расставить людей, заразить всех своей кипучей энергией, и строители живо откликнулись проявлением своей инициативы. Теперь уже дожди не мешают выполнению плана...

Источник: DVB
Качество видео: SATRip-AVC
Формат видео: MKV

Видео: 704->760x570 (4:3), 25 fps, H264 ~ 1840 kbps avg, 0.183 bit/pixel
Аудио: 48 kHz, Dolby Digital AC3 2.0, 192 kbps

Раздача от:
Общее
Полное имя : Dozhdi.1958.SATRip-AVC_[New-team]_by_AVP_Studio.mkv
Формат : Matroska
Версия формата : Version 2
Размер файла : 745 Мбайт
Продолжительность : 51 м. 11 с.
Общий поток : 2035 Кбит/сек
Дата кодирования : UTC 2017-09-14 10:18:18
Программа кодирования : mkvmerge v6.1.0 ('Old Devil') built on Mar 4 2013 09:10:42
Библиотека кодирования : libebml v1.3.0 + libmatroska v1.4.0

Видео
Идентификатор : 1
Формат : AVC
Формат/Информация : Advanced Video Codec
Профиль формата : High@L4.1
Параметр CABAC формата : Да
Параметр RefFrames формата : 10 кадров
Идентификатор кодека : V_MPEG4/ISO/AVC
Продолжительность : 51 м. 11 с.
Битрейт : 1840 Кбит/сек
Ширина : 704 пикселя
Высота : 570 пикселей
Соотношение сторон : 4:3
Режим частоты кадров : Постоянный
Частота кадров : 25,000 кадров/сек
Цветовое пространство : YUV
Субдискретизация насыщенности : 4:2:0
Битовая глубина : 8 бит
Тип развёртки : Прогрессивная
Бит/(Пиксели*Кадры) : 0.183
Размер потока : 660 Мбайт (89%)
Библиотека кодирования : x264 core 130 r2273 b3065e6
Настройки программы : cabac=1 / ref=10 / deblock=1:-2:-1 / analyse=0x3:0x113 / me=umh / subme=10 / psy=1 / psy_rd=1.00:0.00 / mixed_ref=1 / me_range=32 / chroma_me=1 / trellis=2 / 8x8dct=1 / cqm=0 / deadzone=21,11 / fast_pskip=1 / chroma_qp_offset=-2 / threads=6 / lookahead_threads=1 / sliced_threads=0 / nr=0 / decimate=0 / interlaced=0 / bluray_compat=0 / constrained_intra=0 / bframes=8 / b_pyramid=2 / b_adapt=2 / b_bias=0 / direct=3 / weightb=1 / open_gop=0 / weightp=2 / keyint=250 / keyint_min=25 / scenecut=40 / intra_refresh=0 / rc=2pass / mbtree=0 / bitrate=1840 / ratetol=1.0 / qcomp=0.60 / qpmin=0 / qpmax=69 / qpstep=4 / cplxblur=20.0 / qblur=0.5 / ip_ratio=1.40 / pb_ratio=1.30 / aq=1:1.00
Default : Да
Forced : Нет

Аудио
Идентификатор : 2
Формат : AC-3
Формат/Информация : Audio Coding 3
Параметр Endianness формата : Big
Идентификатор кодека : A_AC3
Продолжительность : 51 м. 11 с.
Вид битрейта : Постоянный
Битрейт : 192 Кбит/сек
Каналы : 2 канала
Расположение каналов : Front: L R
Частота : 48,0 КГц
Частота кадров : 31,250 кадров/сек (1536 SPF)
Битовая глубина : 16 бит
Метод сжатия : С потерями
Размер потока : 70,3 Мбайт (9%)
Default : Да
Forced : Нет



Скачать Дожди через торрент http://s019.radikal.ru/i612/1709/81/b803494196a5.png Скачать, смотреть онлайн Дожди бесплантно в хорошем качестве Описание:Телефильм по одноименному рассказу Сергея Антонова.На строительстве небольшого моста срывается план работ — вот уже две недели ... 5 10 1
Info! Золотая раздача, скачанное не засчитывается.
Торрент: Зарегистрирован [2017-09-17 07:51] · скачан: 39 раз
Статус: √ проверено
Размер: 745 MB
Как cкачать? Как скачать Дожди через торрент | UTorrent

% Раздел Тема Автор DL S | L
Кино СССР [ 745 MB ] Дожди | | SATRip от AVP Studio AVP Studio Скачать
1 | 0

28-11-2019 20:33  


Отключить вcю реклaмy на сайте, в т.ч. и в плеере онлайн просмотра!

    Дорогой пользователь! Огромная просьба, поблагодарите релизера, оцените раздачу и оставьте свои комментарий, если Вы скачали Дожди через торрент бесплатно!!
    Комментировать посты могут только пользователи прошедшие не сложную регистрацию
    Показать сообщения:    


    Дожди через торрент
    Скачать бесплатно Дожди
    Дожди скачать торрент
    Дожди смотреть онлайн
    Cкачать фильм Дожди бесплатно
    Дожди скачать торрент в хорошем качестве
    Дожди смотреть онлайн бесплатно в хорошем качестве
    Вы не можете начинать темы
    Вы не можете отвечать на сообщения
    Вы не можете редактировать свои сообщения
    Вы не можете удалять свои сообщения
    Вы не можете голосовать в опросах
    Вы не можете прикреплять файлы к сообщениям
    Вы можете скачивать файлы