Доктор Стрэндж

Лицензия

Добыча

MVO

Дом дракона

1 сезон

Тор

Лицензия

Мэверик

Лицензия

Там, где раки поют

MVO

Властелин колец

1 сезон

Ultimate

pack

Рекомендуем

30

Repack

ВАЖНО

ВАЖНО

Ghostwire

RePack

jed

RePack

nioh2

RePack

RDR2

RePack

NEED FOR SPEED™ PAYBACK

RePack

скачать торрент

Кинопоиск HD

Острые козырьки 6 сезон

6 сезон

FAR CRY 6

RePack

скачать торрент

Лицензия

скачать торрент

MVO

1

1 сезон

скачать торрент

1 сезон

скачать торрент

Лицензия

  

Первый парень (Сергей Параджанов) [1958, СССР, комедия, SATRip от AVP Studio]

Первый парень через торрент piratbit.org

Размер: 745 MB | Добавлен: 5 лет назад | Торрент скачан:21 раз
Смотреть онлайн Первый парень | Скачать   

18-09-2017 08:48 Первый парень Скачать торрент  

Первый парень
Страна: СССР
Производство: К/ст им. Довженко

Жанр: комедия
Год выпуска: 1958
Продолжительность: 01:20:29

Перевод: Не требуется
Cубтитры: нет
Оригинальная аудиодорожка: русский

Режиссер: Сергей Параджанов

В ролях:
Григорий Карпов, Людмила Сосюра, Юрий Сатаров, Валерия Коваленко, Андрей Андриенко-Земсков, Николай Шутько, Тамара Алексеева, Людмила Орлова (II), Михаил Крамар, Ярослав Сасько, Николай Яковченко, Юрий Цупко, Варвара Чайка, Иван Матвеев...
Об актёрах подробней

Описание:
Сержант Данила, демобилизовавшись из армии, вернулся в свое село и, насмотревшись на скучающую молодежь, организовал строительство стадиона. Все парни стали активно заниматься спортом — гимнастикой, плаванием, футболом. И даже беспутный Юшка, который ранее развлекал ребят дикими шутками, за что и был прозван «первым парнем» и за что злилась на него любимая девушка Одарка Кучерявая, решил стать первым футболистом — и это у него, в конце концов, получилось.

Источник: DVB
Качество видео: SATRip
Формат видео: AVI

Видео: 640x480 (4:3), 25 fps, XviD ~ 1157 kbps avg, 0.151 bit/pixel
Аудио: 48 kHz, MP3 2.0, 128 kbps

Раздача от:
Общее
Полное имя : Pervyy.paren.1958.SATRip-745_[New-team]_by_AVP_Studio.avi
Формат : AVI
Формат/Информация : Audio Video Interleave
Размер файла : 745 Мбайт
Продолжительность : 1 ч. 20 м.
Общий поток : 1295 Кбит/сек
Программа кодирования : VirtualDubMod 1.5.10.3 | www.virtualdub-fr.org || (build 2550/release)
Библиотека кодирования : VirtualDubMod build 2550/release

Видео
Идентификатор : 0
Формат : MPEG-4 Visual
Профиль формата : Advanced Simple@L5
Параметр BVOP формата : 1
Параметр QPel формата : Нет
Параметр GMC формата : Без точки перехода
Параметр матрицы формата : Выборочная
Идентификатор кодека : XVID
Идентификатор кодека/Подсказка : XviD
Продолжительность : 1 ч. 20 м.
Битрейт : 1157 Кбит/сек
Ширина : 640 пикселей
Высота : 480 пикселей
Соотношение сторон : 4:3
Частота кадров : 25,000 кадров/сек
Цветовое пространство : YUV
Субдискретизация насыщенности : 4:2:0
Битовая глубина : 8 бит
Тип развёртки : Прогрессивная
Метод сжатия : С потерями
Бит/(Пиксели*Кадры) : 0.151
Размер потока : 666 Мбайт (89%)
Библиотека кодирования : XviD 73

Аудио
Идентификатор : 1
Формат : MPEG Audio
Версия формата : Version 1
Профиль формата : Layer 3
Идентификатор кодека : 55
Идентификатор кодека/Подсказка : MP3
Продолжительность : 1 ч. 20 м.
Вид битрейта : Постоянный
Битрейт : 128 Кбит/сек
Каналы : 2 канала
Частота : 48,0 КГц
Метод сжатия : С потерями
Размер потока : 73,7 Мбайт (10%)
Выравнивание : Соединение по промежуткам
Продолжительность промежутка : 40 мс. (1,00 видеокадр)
Время предзагрузки промежутка : 504 мс.
Библиотека кодирования : LAME3.99r
Настройки программы : -m s -V 4 -q 2 -lowpass 17 -b 128



Скачать Первый парень через торрент http://s48.radikal.ru/i122/1709/97/4f222b03fb7f.png Скачать, смотреть онлайн Первый парень бесплантно в хорошем качестве Описание:Сержант Данила, демобилизовавшись из армии, вернулся в свое село и, насмотревшись на скучающую молодежь, организовал строительство ... 10 10 1
Info! Золотая раздача, скачанное не засчитывается.
Торрент: Зарегистрирован [2017-09-18 08:48] · скачан: 21 раз
Статус: √ проверено
Размер: 745 MB
Как cкачать? Как скачать Первый парень через торрент | UTorrent

% Раздел Тема Автор DL S | L
Кино СССР [ 1.09 GB ] Первый парень | | SATRip-AVC от AVP Studio AVP Studio Скачать
1 | 0
Кино СССР [ 1.09 GB ] Первый парень | | SATRip от AVP Studio AVP Studio Скачать
1 | 0

28-11-2019 20:33  

Отключить вcю реклaмy на сайте

    Дорогой пользователь! Огромная просьба, поблагодарите релизера, оцените раздачу и оставьте свои комментарий, если Вы скачали Первый парень через торрент бесплатно!!
    Комментировать посты могут только пользователи прошедшие не сложную регистрацию
    Показать сообщения:    


    Первый парень через торрент
    Скачать бесплатно Первый парень
    Первый парень скачать торрент
    Первый парень смотреть онлайн
    Cкачать фильм Первый парень бесплатно
    Первый парень скачать торрент в хорошем качестве
    Первый парень смотреть онлайн бесплатно в хорошем качестве
    Вы не можете начинать темы
    Вы не можете отвечать на сообщения
    Вы не можете редактировать свои сообщения
    Вы не можете удалять свои сообщения
    Вы не можете голосовать в опросах
    Вы не можете прикреплять файлы к сообщениям
    Вы можете скачивать файлы