Death Stranding+DLC+АВТОАКТИВАЦИЯ

iTunes

iTunes

iTunes

1

iTunes

iTunes

iTunes

iTunes

iTunes

30
pack

$ от Little Big

ВАЖНО

!!Акция!!

Alien_RageХит недели

RePack

Resident Evil 21

ИГРА 18+

pack

RePack

jed

!!Акция!!

Alien_Rage

RePack

fifa19

RePack

Assassins Creed: Odyssey

RePack

NEED FOR SPEED™ PAYBACK

4 сезон

9 сезон

Бесстыжие 9 сезон

Все сериалы

все сериалы на PB.wtf

RePack

FAR CRY 5
  

Измученный / The Tortured (Роберт Либерман / Robert Lieberman) [2010 г., триллер, драма, BDRip, 1080p] VO + rus. sub piratbit.org

Измученный через торрент piratbit.org

Размер: 6.81 GB | Добавлен: 9 лет 8 мес. назад | Торрент скачан:52 раза
Скачать  

25-10-2010 18:02 Измученный Скачать торрент  

Измученный / The Tortured (2010) [1080p] BDRip
Русское название: Измученный
Оригинальное название: The Tortured
Год выпуска: 2010
Жанр: Триллер, Ужасы, Драма

Описание фильма:
Жизнь молодой семьи внезапно разрушается, после того как их единственный ребенок был похищен и убит. Одержимые местью родители готовы на все лишь бы расправиться с убийцей… На что способны убитые горем мать и отец, потерявшие смысл существования?

Режиссер: Роберт Либерман
Актеры: Джесси Меткалф, Эрика Кристенсен, Билл Моусли, Чела Хорсдэл, Фульвио Чечере, Джейкоб Дейвис, Аарон Перл, Вив Ликок, Кэйден Кесслер, Саманта Гудстад

Продолжительность: 01:21:40
Перевод: Любительский одноголосый / оригинал английский

Видеокодек: MPEG-4 AVC/H.264
Формат: MKV
Битрейт видео: ~10.7 mb/s
Размер кадра: 1920x1080
Качество видео: BDRip
Аудиокодек: AC3 / DTS
Битрейт аудио: Russian: AC3, 448 kb/s (6 ch) / English: DTS, 755 kb/s (6 ch)
Субтитры: English


General
Complete name : The.Tortured.mkv
Format : Matroska
File size : 6.81 GiB
Duration : 1h 21mn
Overall bit rate : 11.9 Mbps
Encoded date : UTC 2010-10-25 06:36:11
Writing application : mkvmerge v4.1.1 ('Bouncin' Back') сборка от Jul 3 2010 22:54:08
Writing library : libebml v1.0.0 + libmatroska v1.0.0

Video
ID : 1
Format : AVC
Format/Info : Advanced Video Codec
Format profile : High@L4.1
Format settings, CABAC : Yes
Format settings, ReFrames : 4 frames
Muxing mode : Container profile=Unknown@4.1
Codec ID : V_MPEG4/ISO/AVC
Duration : 1h 21mn
Bit rate : 10.7 Mbps
Width : 1 920 pixels
Height : 1 080 pixels
Display aspect ratio : 16:9
Frame rate : 23.976 fps
Color space : YUV
Chroma subsampling : 4:2:0
Bit depth : 8 bits
Scan type : Progressive
Bits/(Pixel*Frame) : 0.216
Stream size : 5.99 GiB (88%)
Writing library : x264 core 107 r1745 4785e8e
Encoding settings : cabac=1 / ref=4 / deblock=1:0:0 / analyse=0x3:0x133 / me=umh / subme=8 / psy=1 / psy_rd=1.00:0.00 / mixed_ref=1 / me_range=16 / chroma_me=1 / trellis=1 / 8x8dct=1 / cqm=0 / deadzone=21,11 / fast_pskip=0 / chroma_qp_offset=-2 / threads=12 / sliced_threads=0 / nr=0 / decimate=1 / interlaced=0 / constrained_intra=0 / bframes=3 / b_pyramid=2 / b_adapt=1 / b_bias=0 / direct=1 / weightb=1 / open_gop=0 / weightp=2 / keyint=250 / keyint_min=23 / scenecut=40 / intra_refresh=0 / rc_lookahead=40 / rc=2pass / mbtree=1 / bitrate=10722 / ratetol=1.0 / qcomp=0.60 / qpmin=10 / qpmax=51 / qpstep=4 / cplxblur=20.0 / qblur=0.5 / ip_ratio=1.40 / aq=1:1.00

Audio #1
ID : 2
Format : AC-3
Format/Info : Audio Coding 3
Mode extension : CM (complete main)
Codec ID : A_AC3
Duration : 1h 21mn
Bit rate mode : Constant
Bit rate : 448 Kbps
Channel(s) : 6 channels
Channel positions : Front: L C R, Side: L R, LFE
Sampling rate : 48.0 KHz
Bit depth : 16 bits
Stream size : 262 MiB (4%)
Title : Любительское (одноголосое)
Language : Russian

Audio #2
ID : 3
Format : DTS
Format/Info : Digital Theater Systems
Codec ID : A_DTS
Duration : 1h 21mn
Bit rate mode : Constant
Bit rate : 755 Kbps
Channel(s) : 6 channels
Channel positions : Front: L C R, Side: L R, LFE
Sampling rate : 48.0 KHz
Bit depth : 24 bits
Stream size : 441 MiB (6%)

Text
ID : 4
Format : UTF-8
Codec ID : S_TEXT/UTF8
Codec ID/Info : UTF-8 Plain Text
Скриншоты:
piratbit.org



Скачать Измученный через торрент http://s7.directupload.net/images/101025/nhd2cetb.jpg Скачать фильм Измученный через торрент бесплантно в хорошем качестве Описание фильма:Жизнь молодой семьи внезапно разрушается, после того как их единственный ребенок был похищен и убит. Одержимые местью ... 4.5 10 8
Info! Золотая раздача, скачанное не засчитывается.
Торрент: Зарегистрирован [2010-10-25 18:02] · скачан: 52 раз
Статус: √ проверено
Размер: 6.81 GB
Как cкачать? Как скачать Измученный через торрент | qTorrent

28-11-2019 20:33  

Отключить всю рекламу на сайте

    Дорогой пользователь! Огромная просьба, поблагодарите релизера, оцените раздачу и оставьте свои комментарий, если Вы скачали Измученный через торрент бесплатно! Внесите свою лепту в развитие PiratBit!
    Комментировать посты могут только пользователи прошедшие не сложную регистрацию
    Показать сообщения:    

    Измученный через торрент
    Скачать бесплатно Измученный
    Измученный скачать торрент
    Измученный смотреть онлайн
    Cкачать фильм Измученный бесплатно
    Измученный скачать торрент в хорошем качестве
    Измученный смотреть онлайн бесплатно в хорошем качестве


    Вы не можете начинать темы
    Вы не можете отвечать на сообщения
    Вы не можете редактировать свои сообщения
    Вы не можете удалять свои сообщения
    Вы не можете голосовать в опросах
    Вы не можете прикреплять файлы к сообщениям
    Вы можете скачивать файлы