1 сезон

3 сезон

iTunes

1

iTunes

DUB Netflix

iTunes

13

1 сезон

RePack

30

Deluxe

pack

Легкие деньги

ВАЖНО

ИГРА 18+

pack

RePack

MK11

RePack

jed

RePack

fifa19

RePack

RDR2

RePack

NEED FOR SPEED™ PAYBACK

4 сезон

9 сезон

Бесстыжие 9 сезон

Все сериалы

все сериалы на PB.wtf

RePack

FAR CRY 5

Anonymous, доброй ночи, мы не успеваем до 1 числа собрать деньги на оплату серверов, помогите нам пожалуйста в это трудное время. В качестве благодарности мы отключим Вам всю рекламу на сайте (укажите свой ник в строку Ваше имя)!

×
  
Magnet ссылка

Битва экстрасенсов / 18 сезон / 1 выпуск из ????) (Фёдор Торстенсен, Ольга Шмид, Олег Чаурс) [2017, Паранормальное шоу, мистика, экстрасенсы, HDTV 1080p] Не требуется [Русский] R.G.Generalfilm piratbit.org

Битва экстрасенсов через торрент piratbit.org

Размер: 5.47 GB | Добавлен: 3 года 8 мес. назад | Торрент скачан:88 раз
Скачать  

26-09-2017 13:13 Битва экстрасенсов Скачать торрент  

Битва экстрасенсов 18 сезон


Год выпуска: 2017
Страна: Россия
Жанр: Паранормальное шоу, мистика, экстрасенсы, сверхъестественное
Продолжительность: 01:17:04
Перевод: Не требуется [Русский]
Режиссер: Фёдор Торстенсен, Ольга Шмид, Олег Чаурс
В ролях:

Михаил Пореченков (ведущий, играет самого себя), Михаил Виноградов (ведущий, играет самого себя), Марат Башаров (ведущий, играет самого себя), Всеволод Кузнецов (голос за кадром, озвучка), Ольга Бузова (играет саму себя), Леонид Коновалов (играет самого себя), Андрей Сафронов (играет самого себя), Илья Сафронов (играет самого себя), Сергей Сафронов (играет самого себя), Роман Сеньков (играет самого себя), Галина Багирова (играет саму себя), Ксения Бородина (играет саму себя)
Описание:
«Битва экстрасенсов» на канале ТНТ доказывает: сверхъестественные способности существуют, а их обладатели могут спасти жизнь, найти пропавшего ребенка, рассказать о прошлом и будущем и просто вернуть потерянный телефон.

Качество: HDTV 1080p by
Формат: MKV
Видео кодек: AVC
Аудио кодек: AC3
Видео: AVC, 1920x1080 (16:9), 10 Мбит/с,, 25 fps, 0,193 bpp
Аудио: AC3 / 2.0 / 48 kHz / 192 kbps /
General
Unique ID : 181164785736776288133455257048745762889 (0x884B118DED809F03AE25034162EFE049)
Complete name : E:\bitva ekstrasensov S18 2017 HDTV 1080p R.G.Generalfilm\Bitva.ekstrasensov.s18.e01.2017.HDTV 1080i.by.White Smoke.R.G.Generalfilm.mkv
Format : Matroska
Format version : Version 4 / Version 2
File size : 5.47 GiB
Duration : 1 h 17 min
Overall bit rate mode : Constant
Overall bit rate : 10.2 Mb/s
Movie name : Bitva.ekstrasensov.s18.e01.2017.HDTV 1080i.by.White Smoke.R.G.Generalfilm.mkv
Encoded date : UTC 2017-09-26 08:23:36
Writing application : mkvmerge v6.8.0 ('Theme for Great Cities') 64bit built on Mar 2 2014 21:34:26
Writing library : libebml v1.3.0 + libmatroska v1.4.1

Video
ID : 1
Format : AVC
Format/Info : Advanced Video Codec
Format profile : High@L4.1
Format settings, CABAC : Yes
Format settings, ReFrames : 3 frames
Codec ID : V_MPEG4/ISO/AVC
Duration : 1 h 17 min
Bit rate mode : Constant
Bit rate : 10 000 kb/s
Width : 1 920 pixels
Height : 1 080 pixels
Display aspect ratio : 16:9
Frame rate mode : Constant
Frame rate : 25.000 FPS
Standard : PAL
Color space : YUV
Chroma subsampling : 4:2:0
Bit depth : 8 bits
Scan type : Progressive
Bits/(Pixel*Frame) : 0.193
Stream size : 5.26 GiB (96%)
Default : Yes
Forced : No
Color range : Limited
Color primaries : BT.709
Transfer characteristics : BT.709
Matrix coefficients : BT.709

Audio
ID : 2
Format : AC-3
Format/Info : Audio Coding 3
Mode extension : CM (complete main)
Format settings, Endianness : Big
Codec ID : A_AC3
Duration : 1 h 17 min
Bit rate mode : Constant
Bit rate : 192 kb/s
Channel(s) : 2 channels
Channel positions : Front: L R
Sampling rate : 48.0 kHz
Frame rate : 31.250 FPS (1536 spf)
Compression mode : Lossy
Stream size : 106 MiB (2%)
Default : Yes
Forced : No
Внимание! Раздача ведётся путём добавления новых серий; при каждом добавлении создаётся новый торрент. Чтобы начать докачку новой серии, пользователям необходимо сделать следующее:
(1) остановить скачивание,
(2) удалить старый торрент у себя из клиента (старые серии удалять не надо),
(3) скачать новый торрент и запустить его у себя в клиенте вместо старого, при этом указать клиенту путь в старую папку куда и должно происходить скачивание новых серий.
Ваш клиент при этом должен произвести хеширование (проверку) старой папки (если не производит сам - помогите ему сделать это), и будет докачивать только те серии которых у вас ещё нет. Старые серии при этом не удаляются, а продолжают раздаваться!
Eсли вы уже удалили старые серии, то предотвратить повторную закачку старых серий можно, отжав галочку в соответствующих местах при запуске нового торрента. По возможности, желательно не удалять старые серии как можно дольше чтобы релизёр не столько продолжал раздавать старые серии, а смог сконцентрироваться на новых.
piratbit.org



Скачать Битва экстрасенсов через торрент http://i89.fastpic.ru/big/2017/0926/d2/cb385410db37bc614c0061941aa648d2.jpeg Скачать фильм Битва экстрасенсов через торрент бесплантно в хорошем качестве Описание: «Битва экстрасенсов» на канале ТНТ доказывает: сверхъестественные способности существуют, а их обладатели могут спасти жизнь, ... 10 10 4
Info! Золотая раздача, скачанное не засчитывается.
Торрент: Зарегистрирован [2017-09-26 13:13] · скачан: 88 раз
Статус: √ проверено
Размер: 5.47 GB
Как cкачать? Как скачать Битва экстрасенсов через торрент | UTorrent



Последний раз редактировалось: White Smoke (2017-09-26 22:52), всего редактировалось 2 раз(а)

28-11-2019 20:33  

Отключить всю рекламу на сайте


26-09-2017 13:31 Битва экстрасенсов Скачать торрент  

Ничего себе размерчик !
Помогу с раздачей !!
Передача очень нравится, от некоторых участников мурашки !!!
Автору темы спасибо !!! piratbit.org



26-09-2017 16:06 Битва экстрасенсов Скачать торрент  

А что, уже новый сезон опять? А то я телик вообще не смотрюpiratbit.org



15-10-2017 14:46 Битва экстрасенсов Скачать торрент  

а что только 1я часть! остальные ждать?piratbit.org



    Дорогой пользователь! Огромная просьба, поблагодарите релизера, оцените раздачу и оставьте свои комментарий, если Вы скачали Битва экстрасенсов через торрент бесплатно! Внесите свою лепту в развитие PiratBit!
    Комментировать посты могут только пользователи прошедшие не сложную регистрацию
    Показать сообщения:    

    Битва экстрасенсов через торрент
    Скачать бесплатно Битва экстрасенсов
    Битва экстрасенсов скачать торрент
    Битва экстрасенсов смотреть онлайн
    Cкачать фильм Битва экстрасенсов бесплатно
    Битва экстрасенсов скачать торрент в хорошем качестве
    Битва экстрасенсов смотреть онлайн бесплатно в хорошем качестве


    Вы не можете начинать темы
    Вы не можете отвечать на сообщения
    Вы не можете редактировать свои сообщения
    Вы не можете удалять свои сообщения
    Вы не можете голосовать в опросах
    Вы не можете прикреплять файлы к сообщениям
    Вы можете скачивать файлы