Ссылка на приватное зеркало всего за 1$. Внимание количество ограничено!!!

iTunes

iTunes

iTunes

1

iTunes

iTunes

iTunes

iTunes

iTunes

30
pack

$ от Little Big

ВАЖНО

!!Акция!!

Alien_RageХит недели

RePack

Resident Evil 21

ИГРА 18+

pack

RePack

jed

!!Акция!!

Alien_Rage

RePack

fifa19

RePack

Assassins Creed: Odyssey

RePack

NEED FOR SPEED™ PAYBACK

4 сезон

9 сезон

Бесстыжие 9 сезон

Все сериалы

все сериалы на PB.wtf

RePack

FAR CRY 5
  

Терминатор 3: Восстание машин / Terminator 3: Rise of the Machines (Джонатан Мостоу) [2003 г., фантастика, боевик, триллер, BDRip] piratbit.org

Терминатор 3: Восстание машин через торрент piratbit.org

Размер: 6.07 GB | Добавлен: 9 лет 8 мес. назад | Торрент скачан:753 раза
Скачать  

29-10-2010 10:24 Терминатор 3: Восстание машин Скачать торрент  

Терминатор 3: Восстание машин / Terminator 3: Rise of the Machines



Год выпуска: 2003
Страна: Германия / США / Великобритания
Жанр: фантастика, боевик, триллер
Продолжительность: 01:49:09
Перевод: Профессиональный (полное дублирование)

Режиссер: Джонатан Мостоу

В ролях: Арнольд Шварценеггер, Ник Стал, Клер Дэйнс, Кристанна Локен, Дэвид Эндрюс, Марк Фамиглетти, Эрл Боэн, Мойра Харрис, Чоппер Бернет, Кристофер Лоуфорд

Описание: Прошло десять лет с тех пор, как Джон Коннор помог предотвратить Судный День и спасти человечество от массового уничтожения. Теперь ему 25, Коннор не живет «как все» — у него нет дома, нет кредитных карт, нет сотового телефона и никакой работы. Его существование нигде не зарегистрировано. Он не может быть прослежен системой Skynet — высокоразвитой сетью машин, которые когда-то попробовали убить его и развязать войну против человечества. Пока из теней будущего не появляется T-X — Терминатрикс, самый сложный киборг-убийца Skynet. Посланная назад сквозь время, чтобы завершить работу, начатую её предшественником, T-1000, эта машина так же упорна, как прекрасен её человеческий облик. Теперь единственная надежда Коннору выжить — Терминатор, его таинственный прежний убийца. Вместе они должны одержать победу над новыми технологиями T-X и снова предотвратить Судный День…

Релиз от:

сэмпл : http://depositfiles.com/files/5ovidv3dm

Качество: BDRip
Формат: MKV
Видео кодек: X.264
Аудио кодек: AC3
Видео:1920x784, 23.976 fps, 7962 kb/s
Аудио: AC3. 448 kb/s (6Ch)
E:\kino\Terminator.Rise.of.the.Machines.mkv
General
Complete name : E:\kino\Terminator.Rise.of.the.Machines.mkv
Format : Matroska
File size : 6.07 GiB
Duration : 1h 49mn
Overall bit rate : 7 962 Kbps
Encoded date : UTC 2010-10-05 16:28:26
Writing application : mkvmerge v3.3.0 ('Language') built on Mar 24 2010 14:59:24
Writing library : libebml v0.8.0 + libmatroska v0.9.0
Video #1
ID : 1
Format : AVC
Format/Info : Advanced Video Codec
Format profile : High@L4.1
Format settings, CABAC : Yes
Format settings, ReFrames : 4 frames
Muxing mode : Container profile=Unknown@4.1
Codec ID : V_MPEG4/ISO/AVC
Duration : 1h 48mn
Bit rate : 7 355 Kbps
Nominal bit rate : 7 566 Kbps
Width : 1 920 pixels
Height : 784 pixels
Display aspect ratio : 2.40:1
Frame rate : 23.976 fps
Resolution : 24 bits
Colorimetry : 4:2:0
Scan type : Progressive
Bits/(Pixel*Frame) : 0.204
Stream size : 5.60 GiB (92%)
Writing library : x264 core 92 r1510 33d382a
Encoding settings : cabac=1 / ref=4 / deblock=1:-3:-3 / analyse=0x3:0x113 / me=tesa / subme=10 / psy=1 / psy_rd=1.00:0.20 / mixed_ref=1 / me_range=32 / chroma_me=1 / trellis=2 / 8x8dct=1 / cqm=0 / deadzone=21,11 / fast_pskip=0 / chroma_qp_offset=-3 / threads=6 / sliced_threads=0 / nr=0 / decimate=0 / interlaced=0 / constrained_intra=0 / bframes=4 / b_pyramid=2 / b_adapt=2 / b_bias=0 / direct=3 / wpredb=1 / wpredp=2 / keyint=250 / keyint_min=25 / scenecut=40 / intra_refresh=0 / rc_lookahead=60 / rc=cbr / mbtree=1 / bitrate=7566 / ratetol=1.0 / qcomp=0.60 / qpmin=10 / qpmax=51 / qpstep=4 / vbv_maxrate=50000 / vbv_bufsize=50000 / ip_ratio=1.40 / aq=1:1.00 / nal_hrd=none
Audio #2
ID : 2
Format : AC-3
Format/Info : Audio Coding 3
Codec ID : A_AC3
Duration : 1h 49mn
Bit rate mode : Constant
Bit rate : 448 Kbps
Channel(s) : 6 channels
Channel positions : Front: L C R, Surround: L R, LFE
Sampling rate : 48.0 KHz
Stream size : 350 MiB (6%)
piratbit.org



Скачать Терминатор 3: Восстание машин через торрент http://i4.fastpic.ru/big/2010/1029/27/fc5176ecb7c68f7b13583698eef23827.jpg Скачать фильм Терминатор 3: Восстание машин через торрент бесплантно в хорошем качестве Описание: Прошло десять лет с тех пор, как Джон Коннор помог предотвратить Судный День и спасти человечество от массового уничтожения. ... 9.9 10 20
Info! Золотая раздача, скачанное не засчитывается.
Торрент: Зарегистрирован [2010-10-29 10:24] · скачан: 753 раз
Статус: √ проверено
Размер: 6.07 GB
Как cкачать? Как скачать Терминатор 3: Восстание машин через торрент | qTorrent

% Раздел Тема Автор DL S | L
Фильмы [HD 720p, 1080p] (Хороший звук DUB, MVO) [ 6.25 GB ] Терминатор 3: Восстание машин / Terminator 3: Rise of the Machines [2003 BDRip 1080p HEVC ()] Мичман37 Скачать
4 | 0


Последний раз редактировалось: tserkovnye (2010-10-29 13:31), всего редактировалось 3 раз(а)

28-11-2019 20:33  

Отключить всю рекламу на сайте

29-10-2010 12:19 Терминатор 3: Восстание машин Скачать торрент  

Где скриншотыpiratbit.org



29-10-2010 13:19 Терминатор 3: Восстание машин Скачать торрент  

VadimGarets писал(а):

Где скриншоты

заменилpiratbit.org



29-10-2010 15:58 Терминатор 3: Восстание машин Скачать торрент  

супер фильмpiratbit.org



18-03-2011 21:09 Терминатор 3: Восстание машин Скачать торрент  

да, отличный!piratbit.org



08-02-2012 14:50 Терминатор 3: Восстание машин Скачать торрент  

Раздайте Плиз!!piratbit.org



    Дорогой пользователь! Огромная просьба, поблагодарите релизера, оцените раздачу и оставьте свои комментарий, если Вы скачали Терминатор 3: Восстание машин через торрент бесплатно! Внесите свою лепту в развитие PiratBit!
    Комментировать посты могут только пользователи прошедшие не сложную регистрацию
    Показать сообщения:    

    Терминатор 3: Восстание машин через торрент
    Скачать бесплатно Терминатор 3: Восстание машин
    Терминатор 3: Восстание машин скачать торрент
    Терминатор 3: Восстание машин смотреть онлайн
    Cкачать фильм Терминатор 3: Восстание машин бесплатно
    Терминатор 3: Восстание машин скачать торрент в хорошем качестве
    Терминатор 3: Восстание машин смотреть онлайн бесплатно в хорошем качестве


    Вы не можете начинать темы
    Вы не можете отвечать на сообщения
    Вы не можете редактировать свои сообщения
    Вы не можете удалять свои сообщения
    Вы не можете голосовать в опросах
    Вы не можете прикреплять файлы к сообщениям
    Вы можете скачивать файлы