1 сезон

3 сезон

iTunes

1

iTunes

DUB Netflix

iTunes

13

1 сезон

RePack

30

Deluxe

pack

Легкие деньги

ВАЖНО

ИГРА 18+

pack

RePack

MK11

RePack

jed

RePack

fifa19

RePack

RDR2

RePack

NEED FOR SPEED™ PAYBACK

4 сезон

9 сезон

Бесстыжие 9 сезон

Все сериалы

все сериалы на PB.wtf

RePack

FAR CRY 5

Anonymous, добрый день, мы не успеваем до 1 числа собрать деньги на оплату серверов, помогите нам пожалуйста в это трудное время. В качестве благодарности мы отключим Вам всю рекламу на сайте (укажите свой ник в строку Ваше имя)!

×
  
Magnet ссылка

Улица / Сезон 1 / Серии 1-79 из 79 (Жанна Кадникова, Николай Бурлак, Михаил Соловьёв) [2017, Драма, комедия, мелодрама, триллер, WEB-DLRip-AVC] piratbit.org

Улица через торрент piratbit.org

Размер: 22.86 GB | Добавлен: 3 года 4 мес. назад | Торрент скачан:105 раз
Скачать  

03-10-2017 13:09 Улица Скачать торрент  

УлицаГод выпуска: 2017
Страна: Россия
Жанр: Драма, комедия, мелодрама, триллер
Продолжительность: x ~ 00:27:00
Субтитры: отсутствуют

Режиссер: Жанна Кадникова, Николай Бурлак, Михаил Соловьёв

В ролях:

Егор Клинаев, Ольга Баранова, Владимир Хацкевич, Екатерина Седик, Павел Савинков, Сергей Змичеревский, Артемий Падалка, Марина Богатова, Ксения Жданова, Марта Дромашко, Александр Терехов

Описание:

«Улица» — это история жителей одной из улиц спального района большого города. Школьники и студенты, домохозяйки и продавцы, олигархи и простые рабочие — здесь встретятся более 30 персонажей разного возраста и социального статуса, у каждого из них своя история. В большой Вселенной «Улицы» нет главных и второстепенных героев, здесь есть бурная жизнь с ее радостями, горестями, казусами и косяками, страхами, любовными переживаниями и трагедиями. Это история про всех нас и наших соседей.

Качество: WEB-DLRip-AVC
Формат: MKV
Видео кодек: H.264
Аудио кодек: AC3

Видео: MPEG-4 AVC, ~ 1600 Кбит/с, 1024x576, 25 кадр/с
Аудио: AC3, 2 ch, 192 Кбит/с
скриншот   скриншот   скриншот   скриншот  

Общее
Уникальный идентификатор : 238656678329233834386867671219180026594 (0xB38B9AB4DC86874D9F88C7554C163AE2)
Полное имя : D:\Ulica.(2017).WEB-DLRip.(AVC).Files-x\01.Ulica.(2017).WEB-DLRip.(AVC).by.Серый1779.Files-x.mkv
Формат : Matroska
Версия формата : Version 2
Размер файла : 354 Мбайт
Продолжительность : 27 м. 35 с.
Общий поток : 1793 Кбит/сек
Дата кодирования : UTC 2017-10-02 22:54:42
Программа кодирования : mkvmerge v7.8.0 ('River Man') 32bit built on Apr 3 2015 12:11:22
Библиотека кодирования : libebml v1.3.1 + libmatroska v1.4.2

Видео
Идентификатор : 1
Формат : AVC
Формат/Информация : Advanced Video Codec
Профиль формата : High@L4.1
Параметр CABAC формата : Да
Параметр ReFrames формата : 9 кадров
Идентификатор кодека : V_MPEG4/ISO/AVC
Продолжительность : 27 м. 35 с.
Битрейт : 1600 Кбит/сек
Ширина : 1024 пикселя
Высота : 576 пикселей
Соотношение сторон : 16:9
Режим частоты кадров : Постоянный
Частота кадров : 25,000 кадров/сек
Цветовое пространство : YUV
Субдискретизация насыщенности : 4:2:0
Битовая глубина : 8 бит
Тип развёртки : Прогрессивная
Бит/(Пиксели*Кадры) : 0.109
Размер потока : 309 Мбайт (87%)
Библиотека кодирования : x264 core 146 r2538 121396c
Настройки программы : cabac=1 / ref=9 / deblock=1:-2:-1 / analyse=0x3:0x113 / me=umh / subme=9 / psy=1 / psy_rd=1.00:0.15 / mixed_ref=1 / me_range=32 / chroma_me=1 / trellis=2 / 8x8dct=1 / cqm=0 / deadzone=21,11 / fast_pskip=0 / chroma_qp_offset=-3 / threads=6 / lookahead_threads=1 / sliced_threads=0 / nr=0 / decimate=1 / interlaced=0 / bluray_compat=0 / constrained_intra=0 / bframes=9 / b_pyramid=2 / b_adapt=2 / b_bias=0 / direct=1 / weightb=1 / open_gop=0 / weightp=2 / keyint=250 / keyint_min=25 / scenecut=40 / intra_refresh=0 / rc_lookahead=50 / rc=2pass / mbtree=0 / bitrate=1600 / ratetol=1.0 / qcomp=0.60 / qpmin=0 / qpmax=69 / qpstep=4 / cplxblur=20.0 / qblur=0.5 / vbv_maxrate=14000 / vbv_bufsize=14000 / nal_hrd=none / filler=0 / ip_ratio=1.40 / pb_ratio=1.30 / aq=2:1.00
Default : Да
Forced : Нет
Цветовой диапазон : Limited
Основные цвета : BT.709
Характеристики трансфера : BT.709
Коэффициенты матрицы : BT.709

Аудио
Идентификатор : 2
Формат : AC-3
Формат/Информация : Audio Coding 3
Расширение режима : CM (complete main)
Параметр Endianness формата : Big
Идентификатор кодека : A_AC3
Продолжительность : 27 м. 35 с.
Вид битрейта : Постоянный
Битрейт : 192 Кбит/сек
Каналы : 2 канала
Расположение каналов : Front: L R
Частота : 44,1 КГц
Частота кадров : 28,711 кадров/сек (1536 spf)
Метод сжатия : С потерями
Размер потока : 37,9 Мбайт (11%)
Default : Да
Forced : Нет

Когда раздача ведётся путём добавления новых серий, при каждом добавлении создётся новый торрент. Чтобы начать докачку новой серии, пользователям необходимо сделать следующее:
(1) остановить скачивание,
(2) удалить старый торрент у себя из клиента (старые серии удалять не надо),
(3) скачать новый торрент и запустить его у себя в клиенте вместо старого, при этом указать клиенту путь в старую папку, куда и должно происходить скачивание новых серий.
Ваш клиент при этом должен произвести хеширование (проверку) старой папки (если не производит сам - помогите ему сделать это), и будет докачивать только те серии, которых у вас ещё нет. Старые серии при этом не удаляются, а продолжают раздаваться!
Eсли вы уже удалили старые серии, то предотвратить повторную закачку старых серий можно, отжав галочку в соответсвующих местах при запуске нового торрента. По возможности, желательно не удалять старые серии как можно дольше, чтобы релизёр не столько продолжал раздавать старые серии, а смог сконцентрироваться на новых.
piratbit.org



Скачать Улица через торрент http://s019.radikal.ru/i619/1710/6c/bcf94f2cf9e4.jpg Скачать фильм Улица через торрент бесплантно в хорошем качестве Описание: «Улица» — это история жителей одной из улиц спального района большого города. Школьники и студенты, домохозяйки и продавцы, ... 7.9 10 13
Info! Золотая раздача, скачанное не засчитывается.
Торрент: Зарегистрирован [2018-02-21 13:40] · скачан: 105 раз
Статус: √ проверено
Размер: 22.86 GB
Как cкачать? Как скачать Улица через торрент | UTorrent

% Раздел Тема Автор DL S | L
TNT serials [ 20.87 GB ] Улица / Сезон 1 / Серии 1-79 из 79 [2017 HDTVRip] bober100 Скачать
1 | 0
TNT serials [ 93.59 GB ] Улица / Сезон 1 / Серии 1-79 из 79 [2017 HDTV 1080i] bober100 Скачать
1 | 0
TNT serials [ 23.25 GB ] Улица / Сезон 1 / Серии 1-79 из 79 [2017 SATRip] bober100 Скачать
1 | 0
TNT serials [ 23.27 GB ] Улица / Сезон: 1 / Серии 1-79 из 79 [2017 Россия WEB-DLRip] GEKADOL Скачать
1 | 0


Последний раз редактировалось: bober100 (2018-02-21 13:40), всего редактировалось 24 раз(а)

28-11-2019 20:33  

Отключить всю рекламу на сайте


04-10-2017 17:02 Улица Скачать торрент  

А ПОЧЕМУ ОДНА СЕРИЯ УЛИЦЫ, А ВТОРАЯ ЛЮБИМЦЫ???piratbit.org



    Дорогой пользователь! Огромная просьба, поблагодарите релизера, оцените раздачу и оставьте свои комментарий, если Вы скачали Улица через торрент бесплатно! Внесите свою лепту в развитие PiratBit!
    Комментировать посты могут только пользователи прошедшие не сложную регистрацию
    Показать сообщения:    

    Улица через торрент
    Скачать бесплатно Улица
    Улица скачать торрент
    Улица смотреть онлайн
    Cкачать фильм Улица бесплатно
    Улица скачать торрент в хорошем качестве
    Улица смотреть онлайн бесплатно в хорошем качестве


    Вы не можете начинать темы
    Вы не можете отвечать на сообщения
    Вы не можете редактировать свои сообщения
    Вы не можете удалять свои сообщения
    Вы не можете голосовать в опросах
    Вы не можете прикреплять файлы к сообщениям
    Вы можете скачивать файлы