2 сезон

iTunes

1 сезон

1

iTunes

iTunes

iTunes

1 сезон

RePack

30

ИГРА 18+

pack

ВАЖНО

!!Акция!!

Alien_RageХит недели

RePack

MK11
pack

Забери бонус

RePack

jed

!!Акция!!

Alien_Rage

RePack

fifa19

RePack

Assassins Creed: Odyssey

RePack

NEED FOR SPEED™ PAYBACK

4 сезон

9 сезон

Бесстыжие 9 сезон

Все сериалы

все сериалы на PB.wtf

RePack

FAR CRY 5
  

У героев не мерзнут уши / Les héros n'ont pas froid aux oreilles (Шарль Немес) [1978 г., Комедия, драма, DVDRip-AVC, Профессиональный (двухголосый)] от ExKinoRay piratbit.org

У героев не мерзнут уши через торрент piratbit.org

Размер: 1.32 GB | Добавлен: 3 года назад | Торрент скачан:8 раз
Скачать  

05-10-2017 16:13 У героев не мерзнут уши Скачать торрент  

У героев не мерзнут уши / Les héros n'ont pas froid aux oreilles
Год выпуска: 1978
Страна: Франция
Жанр: Комедия, драма
Продолжительность: 01:19:01
Перевод: Профессиональный (двухголосый)

Режиссер: Шарль Немес

Премьера в мире: 17 января 1979

rating

В ролях: Жерар Жюньо, Даниель Отой, Анн Жуссе, Анри Гюибе, Ролан Жиро, Жерар Ланвен, Жозиан Баласко, Мишель Блан, Мари-Анн Шазель, Кристиан Клавье, Тьерри Лермитт, Мартин Ламотт

Описание: Два братца, Жан-Бернар и Пьер - холостяки. Оба находятся в постоянном поиске женщины, но неудачи подстерегают их на каждом шагу. И вот, наконец, в доме братьев появляется девушка, которую они подобрали во время автомобильного путешествия. Каждый из двух чудаков хочет понравиться Карин. Чтобы привлечь ее внимание, они готовы творить невероятные глупости. Но настало время решающих действий. Кого выберет Карин?

Доп. информация: Профессиональный двухголосый (OРТ)

Качество: DVDRip-AVC
Формат: MKV
Видео кодек: MPEG4
Аудио кодек: AC3
Видео: MPEG-4 AVC, 2000 Кбит/с, 676x568@961x568, 25 кадров/сек
Аудио#1: Русский (AC3, 2 ch, 192 Кбит/с, 48 КГц)
Аудио#2: Французский (AC3, 2 ch, 192 Кбит/с, 48 КГц)
Релиз от:




raw [info]: 676x568p 64:45 @ 25/1 fps (cfr)
x264 [info]: using SAR=64/45
x264 [info]: using cpu capabilities: MMX2 SSE2Fast LZCNT
x264 [info]: profile High, level 4.1
x264 [info]: frame I:647 Avg QP:15.34 size: 64939
x264 [info]: frame P:22729 Avg QP:17.89 size: 24843
x264 [info]: frame B:95165 Avg QP:19.62 size: 6080
x264 [info]: consecutive B-frames: 1.0% 1.5% 5.8% 7.7% 7.2% 72.6% 2.8% 0.4% 0.4% 0.1% 0.2% 0.2% 0.0% 0.0% 0.0% 0.0% 0.1%
------
Общее
Уникальный идентификатор : 187027924679775455767420784147208951123 (0x8CB4449F6E922F10874D350FC77D5553)
Полное имя : D:\Relizes\Les.heros.1978.DVDRip-AVC.ExKinoRay.mkv
Формат : Matroska
Версия формата : Version 2
Размер файла : 1,32 Гбайт
Продолжительность : 1 ч. 19 м.
Общий поток : 2386 Кбит/сек
Дата кодирования : UTC 2017-10-05 13:28:17
Программа кодирования : mkvmerge v7.8.0 ('River Man') 32bit built on Apr 3 2015 12:11:22
Библиотека кодирования : libebml v1.3.1 + libmatroska v1.4.2

Видео
Идентификатор : 1
Формат : AVC
Формат/Информация : Advanced Video Codec
Профиль формата : High@L4.1
Параметр CABAC формата : Да
Параметр ReFrames формата : 14 кадров
Идентификатор кодека : V_MPEG4/ISO/AVC
Продолжительность : 1 ч. 19 м.
Битрейт : 2000 Кбит/сек
Ширина : 676 пикселей
Высота : 568 пикселей
Соотношение сторон : 5:3
Соотношение сторон в оригинале : 5:3
Режим частоты кадров : Постоянный
Частота кадров : 25,000 кадров/сек
Цветовое пространство : YUV
Субдискретизация насыщенности : 4:2:0
Битовая глубина : 8 бит
Тип развёртки : Прогрессивная
Бит/(Пиксели*Кадры) : 0.208
Размер потока : 1,08 Гбайт (82%)
Библиотека кодирования : x264 core 148 r2638 7599210
Настройки программы : cabac=1 / ref=14 / deblock=1:-2:-2 / analyse=0x3:0x133 / me=umh / subme=10 / psy=1 / psy_rd=1.05:0.15 / mixed_ref=1 / me_range=32 / chroma_me=1 / trellis=2 / 8x8dct=1 / cqm=0 / deadzone=21,11 / fast_pskip=0 / chroma_qp_offset=-3 / threads=4 / lookahead_threads=1 / sliced_threads=0 / nr=0 / decimate=0 / interlaced=0 / bluray_compat=0 / constrained_intra=0 / bframes=16 / b_pyramid=2 / b_adapt=2 / b_bias=0 / direct=3 / weightb=1 / open_gop=0 / weightp=2 / keyint=250 / keyint_min=25 / scenecut=40 / intra_refresh=0 / rc=2pass / mbtree=0 / bitrate=2000 / ratetol=1.0 / qcomp=0.60 / qpmin=0 / qpmax=69 / qpstep=4 / cplxblur=20.0 / qblur=0.5 / ip_ratio=1.40 / pb_ratio=1.30 / aq=1:1.00
Язык : English
Default : Да
Forced : Нет
Цветовой диапазон : Limited
Основные цвета : BT.601 NTSC
Характеристики трансфера : BT.601
Коэффициенты матрицы : BT.601

Аудио #1
Идентификатор : 2
Формат : AC-3
Формат/Информация : Audio Coding 3
Расширение режима : CM (complete main)
Параметр Endianness формата : Big
Идентификатор кодека : A_AC3
Продолжительность : 1 ч. 19 м.
Вид битрейта : Постоянный
Битрейт : 192 Кбит/сек
Каналы : 2 канала
Расположение каналов : Front: L R
Частота : 48,0 КГц
Частота кадров : 31,250 кадров/сек (1536 spf)
Метод сжатия : С потерями
Размер потока : 109 Мбайт (8%)
Язык : Russian
Default : Да
Forced : Нет

Аудио #2
Идентификатор : 3
Формат : AC-3
Формат/Информация : Audio Coding 3
Расширение режима : CM (complete main)
Параметр Endianness формата : Big
Идентификатор кодека : A_AC3
Продолжительность : 1 ч. 19 м.
Вид битрейта : Постоянный
Битрейт : 192 Кбит/сек
Каналы : 2 канала
Расположение каналов : Front: L R
Частота : 48,0 КГц
Частота кадров : 31,250 кадров/сек (1536 spf)
Метод сжатия : С потерями
Размер потока : 109 Мбайт (8%)
Язык : French
Default : Нет
Forced : Нет

piratbit.org



Скачать У героев не мерзнут уши через торрент http://s61.radikal.ru/i174/1710/67/f14a49bd0c2e.jpg Скачать фильм У героев не мерзнут уши через торрент бесплантно в хорошем качестве Описание: Два братца, Жан-Бернар и Пьер - холостяки. Оба находятся в постоянном поиске женщины, но неудачи подстерегают их на каждом шагу. ... 5 10 1
Info! Золотая раздача, скачанное не засчитывается.
Торрент: Зарегистрирован [2017-10-05 16:13] · скачан: 8 раз
Статус: √ проверено
Размер: 1.32 GB
Как cкачать? Как скачать У героев не мерзнут уши через торрент | qTorrent

28-11-2019 20:33  

Отключить всю рекламу на сайте

05-10-2017 20:34 У героев не мерзнут уши Скачать торрент  

Топик был перенесен из форума Оформление раздач (Кино, Видео и ТВ) в форум Классика зарубежного кино


bober100piratbit.org



    Дорогой пользователь! Огромная просьба, поблагодарите релизера, оцените раздачу и оставьте свои комментарий, если Вы скачали У героев не мерзнут уши через торрент бесплатно! Внесите свою лепту в развитие PiratBit!
    Комментировать посты могут только пользователи прошедшие не сложную регистрацию
    Показать сообщения:    

    У героев не мерзнут уши через торрент
    Скачать бесплатно У героев не мерзнут уши
    У героев не мерзнут уши скачать торрент
    У героев не мерзнут уши смотреть онлайн
    Cкачать фильм У героев не мерзнут уши бесплатно
    У героев не мерзнут уши скачать торрент в хорошем качестве
    У героев не мерзнут уши смотреть онлайн бесплатно в хорошем качестве


    Вы не можете начинать темы
    Вы не можете отвечать на сообщения
    Вы не можете редактировать свои сообщения
    Вы не можете удалять свои сообщения
    Вы не можете голосовать в опросах
    Вы не можете прикреплять файлы к сообщениям
    Вы можете скачивать файлы