Лицензия

MVO

1

1 сезон

Лицензия

Лицензия

13

MVO

1 сезон

Deluxe Edition

pack

Рекомендуем

30

Repack

ВАЖНО

ВАЖНО

Ghostwire

RePack

jed

RePack

fifa19

RePack

RDR2

RePack

NEED FOR SPEED™ PAYBACK

RePack

Кинопоиск HD

 Острые козырьки 6 сезон

6 сезон

FAR CRY 6

RePack

Лицензия

MVO

1

1 сезон

1 сезон

Лицензия

  

Улица молодости (Феликс Миронер) [1958, СССР, драма, SATRip от AVP Studio]

Улица молодости через торрент piratbit.org

Размер: 1.09 GB | Добавлен: 4 года 11 мес. назад | Торрент скачан:21 раз
Смотреть онлайн Улица молодости | Скачать   

07-10-2017 08:23 Улица молодости Скачать торрент  

Улица молодости
Страна: СССР
Производство: Одесская киностудия

Жанр: драма
Год выпуска: 1958
Продолжительность: 01:23:31

Перевод: Не требуется
Cубтитры: нет
Оригинальная аудиодорожка: русский

Режиссер: Феликс Миронер

В ролях:
Владимир Земляникин, Любовь Стриженова, Николай Ключнев, Инга Будкевич, Лев Борисов, Сергей Курилов, Павел Волков, Александр Лебедев, Николай Сморчков, Евгений Тетерин, Станислав Хитров...
Об актёрах подробней

Описание:
На месте старой окраины - новостройка. Сюда прибывает большая группа выпускников ремесленного училища. Заводила и душа группы - веселый плотник Иван (Владимир Земляникин). Демобилизовавшегося из армии Сергея Назаренко выдвигают в комсорги. Вскоре на стройку прибывает группа девушек из села - и начинается интересная жизнь: сплачивается молодежный коллектив, зарождаются симпатии и любовь, образуются семьи...

Источник: DVB
Качество видео: SATRip
Формат видео: AVI

Видео: 688x512 (4:3), 25 fps, XviD ~ 1665 kbps avg, 0.189 bit/pixel
Аудио: 48 kHz, Dolby Digital AC3 2.0, 192 kbps

Раздача от:
Общее
Полное имя : Ulica.molodosti.1958.SATRip_[New-team]_by_AVP_Studio.avi
Формат : AVI
Формат/Информация : Audio Video Interleave
Размер файла : 1,09 Гбайт
Продолжительность : 1 ч. 23 м.
Общий поток : 1867 Кбит/сек
Программа кодирования : VirtualDubMod 1.5.10.3 | www.virtualdub-fr.org || (build 2550/release)
Библиотека кодирования : VirtualDubMod build 2550/release

Видео
Идентификатор : 0
Формат : MPEG-4 Visual
Профиль формата : Advanced Simple@L5
Параметр BVOP формата : 1
Параметр QPel формата : Нет
Параметр GMC формата : Без точки перехода
Параметр матрицы формата : Выборочная
Идентификатор кодека : XVID
Идентификатор кодека/Подсказка : XviD
Продолжительность : 1 ч. 23 м.
Битрейт : 1665 Кбит/сек
Ширина : 688 пикселей
Высота : 512 пикселей
Соотношение сторон : 4:3
Частота кадров : 25,000 кадров/сек
Цветовое пространство : YUV
Субдискретизация насыщенности : 4:2:0
Битовая глубина : 8 бит
Тип развёртки : Прогрессивная
Метод сжатия : С потерями
Бит/(Пиксели*Кадры) : 0.189
Размер потока : 995 Мбайт (89%)
Библиотека кодирования : XviD 73

Аудио
Идентификатор : 1
Формат : AC-3
Формат/Информация : Audio Coding 3
Параметр Endianness формата : Big
Идентификатор кодека : 2000
Продолжительность : 1 ч. 23 м.
Вид битрейта : Постоянный
Битрейт : 192 Кбит/сек
Каналы : 2 канала
Расположение каналов : Front: L R
Частота : 48,0 КГц
Частота кадров : 31,250 кадров/сек (1536 SPF)
Битовая глубина : 16 бит
Метод сжатия : С потерями
Размер потока : 115 Мбайт (10%)
Выравнивание : Разделение по промежуткам
Продолжительность промежутка : 40 мс. (1,00 видеокадр)
Время предзагрузки промежутка : 500 мс



Скачать Улица молодости через торрент http://s019.radikal.ru/i642/1710/2e/c603eff3e31c.png Скачать, смотреть онлайн Улица молодости бесплантно в хорошем качестве Описание:На месте старой окраины - новостройка. Сюда прибывает большая группа выпускников ремесленного училища. Заводила и душа группы - ... 5 10 1
Info! Золотая раздача, скачанное не засчитывается.
Торрент: Зарегистрирован [2017-10-07 08:23] · скачан: 21 раз
Статус: √ проверено
Размер: 1.09 GB
Как cкачать? Как скачать Улица молодости через торрент | UTorrent

% Раздел Тема Автор DL S | L
Кино СССР [ 1.09 GB ] Улица молодости | | SATRip-AVC от AVP Studio AVP Studio Скачать
1 | 0
Кино СССР [ 745 MB ] Улица молодости | | SATRip от AVP Studio AVP Studio Скачать
1 | 0

28-11-2019 20:33  

Отключить вcю реклaмy на сайте

    Дорогой пользователь! Огромная просьба, поблагодарите релизера, оцените раздачу и оставьте свои комментарий, если Вы скачали Улица молодости через торрент бесплатно!!
    Комментировать посты могут только пользователи прошедшие не сложную регистрацию
    Показать сообщения:    


    Улица молодости через торрент
    Скачать бесплатно Улица молодости
    Улица молодости скачать торрент
    Улица молодости смотреть онлайн
    Cкачать фильм Улица молодости бесплатно
    Улица молодости скачать торрент в хорошем качестве
    Улица молодости смотреть онлайн бесплатно в хорошем качестве
    Вы не можете начинать темы
    Вы не можете отвечать на сообщения
    Вы не можете редактировать свои сообщения
    Вы не можете удалять свои сообщения
    Вы не можете голосовать в опросах
    Вы не можете прикреплять файлы к сообщениям
    Вы можете скачивать файлы