2 сезон

iTunes

WEBRip

1

2 сезон

iTunes

1 сезон

1 сезон

RePack

30

Ultimate

ВАЖНО

ИГРА 18+

pack

RePack

MK11
pack

Легкие деньги

RePack

jed

RePack

fifa19

RePack

RDR2

RePack

NEED FOR SPEED™ PAYBACK

4 сезон

9 сезон

Бесстыжие 9 сезон

Все сериалы

все сериалы на PB.wtf

RePack

FAR CRY 5

Anonymous, добрый вечер, мы не успеваем собрать деньги на оплату серверов за февраль, помогите нам пожалуйста в это трудное время. В качестве благодарности мы отключим Вам всю рекламу на сайте (укажите свой ник в строку Ваше имя)!

×
  
Magnet ссылка

Тёмная башня / The Dark Tower (Николай Арсель) [2017, ужасы, фантастика, фэнтези, боевик, приключения, вестерн, BDRip 1080p] [Ukr DUB] [Line] piratbit.org

Тёмная башня через торрент piratbit.org

Размер: 4.06 GB | Добавлен: 3 года 4 мес. назад | Торрент скачан:178 раз
Скачать  

09-10-2017 10:18 Тёмная башня Скачать торрент  

Тёмная башня / The Dark Tower Год выпуска: 2017
Страна: США
Производство: Imagine Entertainment, Media Rights Capital, Sony Pictures Entertainment (SPE), Weed Road Pictures
Жанр: ужасы, фантастика, фэнтези, боевик, приключения, вестерн
Продолжительность: 01:34:44
Перевод: Украинский (дублированный)
Субтитры: английские

Режиссер: Николай Арсель
Авторы сценария: Акива Голдсман, Джефф Пинкнер, Андерс Томас Йенсен

В ролях: Идрис Эльба, Мэттью МакКонахи, Том Тейлор, Клаудия Ким, Фрэн Кранц, Эбби Ли, Джеки Эрл Хейли, Кэтрин Уинник, Деннис Хейсбёрт

Описание: Наш мир — не единственный из существующих. Заклятые враги Роланд Дискейн, последний из ордена стрелков, и Уолтер О’Дим, известный также как Человек в чёрном, ведут извечную борьбу. На кону — мифическая Тёмная Башня, последний оплот и надежда вселенной, без которой мир будет повержен в полный хаос и разрушение. Силам добра и зла суждено столкнуться в последней схватке, ведь Роланд Дискейн — единственный, кому под силу остановить Человека в черном, прежде чем тот разрушит Тёмную Башню...



Качество: BDRip 1080р
Формат: МКV
Видео кодек: AVC
Аудио кодек: AC3
Видео: 1920x800, 23.976 fps, MPEG-4 AVC ~5400 kbps avg
Аудио: 48 kHz, AC3, 2 ch, ~192 kbps - Ukr DUB
Аудио: 48 kHz, AC3, 6 ch, ~640 kbps - Eng
General
Unique ID : 254540661664253819718584678947864321891 (0xBF7EBF8C6A927182918FDBEF94721F63)
Complete name : E:\The Dark Tower (2017) BDRip 1080p [UKR_ENG] [Hurtom].mkv
Format : Matroska
Format version : Version 4 / Version 2
File size : 4.06 GiB
Duration : 1h 34mn
Overall bit rate : 6 139 Kbps
Encoded date : UTC 2017-10-08 21:25:21
Writing application : mkvmerge v16.0.0 ('Protest') 64-bit
Writing library : libebml v1.3.5 + libmatroska v1.4.8
Attachements : cover.jpg

Video
ID : 1
Format : AVC
Format/Info : Advanced Video Codec
Format profile : High@L4.1
Format settings, CABAC : Yes
Format settings, ReFrames : 4 frames
Codec ID : V_MPEG4/ISO/AVC
Duration : 1h 34mn
Bit rate : 5 400 Kbps
Width : 1 920 pixels
Height : 800 pixels
Display aspect ratio : 2.40:1
Frame rate mode : Constant
Frame rate : 23.976 fps
Color space : YUV
Chroma subsampling : 4:2:0
Bit depth : 8 bits
Scan type : Progressive
Bits/(Pixel*Frame) : 0.147
Stream size : 3.43 GiB (84%)
Writing library : x264 core 142 r2479 dd79a61
Encoding settings : cabac=1 / ref=1 / deblock=1:0:0 / analyse=0x3:0x113 / me=hex / subme=2 / psy=1 / psy_rd=1.00:0.00 / mixed_ref=0 / me_range=16 / chroma_me=1 / trellis=0 / 8x8dct=1 / cqm=0 / deadzone=21,11 / fast_pskip=1 / chroma_qp_offset=0 / threads=12 / lookahead_threads=4 / sliced_threads=0 / nr=0 / decimate=1 / interlaced=0 / bluray_compat=0 / constrained_intra=0 / bframes=3 / b_pyramid=2 / b_adapt=1 / b_bias=0 / direct=1 / weightb=1 / open_gop=0 / weightp=1 / keyint=240 / keyint_min=24 / scenecut=40 / intra_refresh=0 / rc_lookahead=10 / rc=abr / mbtree=1 / bitrate=5400 / ratetol=1.0 / qcomp=0.60 / qpmin=0 / qpmax=69 / qpstep=4 / vbv_maxrate=62500 / vbv_bufsize=78125 / nal_hrd=none / filler=0 / ip_ratio=1.40 / aq=1:1.00
Language : English
Default : Yes
Forced : No
Color range : Limited
Color primaries : BT.709
Transfer characteristics : BT.709
Matrix coefficients : BT.709

Audio #1
ID : 2
Format : AC-3
Format/Info : Audio Coding 3
Mode extension : CM (complete main)
Format settings, Endianness : Big
Codec ID : A_AC3
Duration : 1h 34mn
Bit rate mode : Constant
Bit rate : 192 Kbps
Channel(s) : 2 channels
Channel positions : Front: L R
Sampling rate : 48.0 KHz
Compression mode : Lossy
Delay relative to video : -83ms
Stream size : 130 MiB (3%)
Title : AC3 2.0 @ 192 kbps - DUB, Line
Language : Ukrainian
Default : Yes
Forced : Yes

Audio #2
ID : 3
Format : AC-3
Format/Info : Audio Coding 3
Mode extension : CM (complete main)
Format settings, Endianness : Big
Codec ID : A_AC3
Duration : 1h 34mn
Bit rate mode : Constant
Bit rate : 640 Kbps
Channel(s) : 6 channels
Channel positions : Front: L C R, Side: L R, LFE
Sampling rate : 48.0 KHz
Compression mode : Lossy
Delay relative to video : -83ms
Stream size : 434 MiB (10%)
Title : Original
Language : English
Default : No
Forced : No

Text
ID : 4
Format : UTF-8
Codec ID : S_TEXT/UTF8
Codec ID/Info : UTF-8 Plain Text
Title : Full
Language : English
Default : No
Forced : No

Menu
00:00:00.000 : :Chapter 1
00:05:51.268 : :Chapter 2
00:10:35.844 : :Chapter 3
00:16:33.618 : :Chapter 4
00:21:54.897 : :Chapter 5
00:25:35.534 : :Chapter 6
00:31:01.902 : :Chapter 7
00:36:25.100 : :Chapter 8
00:40:50.323 : :Chapter 9
00:46:02.093 : :Chapter 10
00:53:18.404 : :Chapter 11
00:58:42.853 : :Chapter 12
01:03:51.119 : :Chapter 13
01:10:37.734 : :Chapter 14
01:15:53.174 : :Chapter 15
01:21:15.079 : :Chapter 16
piratbit.org



Скачать Тёмная башня через торрент http://s010.youpic.su/pictures/1502056800/66a6499bb0b52939964addbbfacc3fdc.png Скачать фильм Тёмная башня через торрент бесплантно в хорошем качестве Описание: Наш мир — не единственный из существующих. Заклятые враги Роланд Дискейн, последний из ордена стрелков, и Уолтер О’Дим, известный ... 8.5 10 12
Info! Золотая раздача, скачанное не засчитывается.
Торрент: Зарегистрирован [2017-10-09 10:18] · скачан: 178 раз
Статус: T временная
Размер: 4.06 GB
Как cкачать? Как скачать Тёмная башня через торрент | UTorrent

% Раздел Тема Автор DL S | L
Фильмы [HD 720p, 1080p] (Хороший звук DUB, MVO) [ 4.35 GB ] Тёмная башня / The Dark Tower [2017 BDRip 720p] DUB + 2xAVO - KORSAR kisa1980 Скачать
1 | 0
T Ultra HD (UHD: 2K, 4K, 8K) — видео сверхвысокой чёткости [ 36.98 GB ] Тёмная башня / The Dark Tower [2017 UHD BDRemux 2160p] DUB [Dolby Vision TV] sheker187 Скачать
1 | 0
Фильмы [HD 720p, 1080p] (Хороший звук DUB, MVO) [ 4.3 GB ] Тёмная башня / The Dark Tower [2017 BDRip-HEVC 1080p ] DUB [] bober100 Скачать
1 | 0
Фильмы (Blu-ray, BD-Remux, HDDVD) [ 23.07 GB ] Тёмная башня / The Dark Tower [2017 BD Remux 1080p] 2xAVO [Живов Володарский] +2xDUB [Sergesha ] bober100 Скачать
1 | 0
Ultra HD (UHD: 2K, 4K, 8K) — видео сверхвысокой чёткости [ 47.89 GB ] Тёмная башня / The Dark Tower [2017 UHD Blu-ray 2160p] DUB [] bober100 Скачать
1 | 0
Фильмы [HD 720p, 1080p] (Хороший звук DUB, MVO) [ 7.46 GB ] Тёмная башня / The Dark Tower [2017 BDRip 1080p] DUB [] bober100 Скачать
1 | 0
Ultra HD (UHD: 2K, 4K, 8K) — видео сверхвысокой чёткости [ 40.5 GB ] Тёмная башня / The Dark Tower [2017 UHD BDRemux 2160p] - [] sheker187 Скачать
1 | 0

28-11-2019 20:33  

Отключить всю рекламу на сайте

09-10-2017 11:47 Тёмная башня Скачать торрент  

ну когда уже наш дубляж чистый выйдет?piratbit.org



09-10-2017 11:48 Тёмная башня Скачать торрент  

SoNIC579 писал(а):

ну когда уже наш дубляж чистый выйдет?

за день до лицензии piratbit.org



09-10-2017 11:49 Тёмная башня Скачать торрент  

Украина уже вышла чистый дубляж)))Сраньpiratbit.org



09-10-2017 12:18 Тёмная башня Скачать торрент  

pipez33 писал(а):

Украина уже вышла чистый дубляж)))Срань

Согласен, бред какой-тоpiratbit.org



09-10-2017 12:57 Тёмная башня Скачать торрент  

спасибо piratbit.org



09-10-2017 13:00 Тёмная башня Скачать торрент  

Украина рулит)) Спасибо автору!piratbit.org



09-10-2017 13:03 Тёмная башня Скачать торрент  

Вот украинцы молодцы...А наши все вафли жуют..Какие-то переводы левые,да еще с сабами непонятными..Да,обмельчал наш пират...Не то,что раньше...piratbit.org



09-10-2017 13:53 Тёмная башня Скачать торрент  

Hurtovyi писал(а):

Украина рулит

😂😂😂piratbit.org



09-10-2017 22:20 Тёмная башня Скачать торрент  

krakatuk12 писал(а):

Hurtovyi писал(а):

Украина рулит

😂😂😂

Зависть?piratbit.org



10-10-2017 08:45 Тёмная башня Скачать торрент  

Hurtovyi писал(а):

krakatuk12 писал(а):

Hurtovyi писал(а):

Украина рулит

😂😂😂

Зависть?

вам? piratbit.org



12-10-2017 10:23 Тёмная башня Скачать торрент  

Крутяк, хоть на родном языке посмотрюpiratbit.org



13-10-2017 18:21 Тёмная башня Скачать торрент  

Дубляж отличный!piratbit.org



09-11-2017 13:05 Тёмная башня Скачать торрент  

Фильм г. Не рекомендую.Рейтинг 3+.piratbit.org



    Дорогой пользователь! Огромная просьба, поблагодарите релизера, оцените раздачу и оставьте свои комментарий, если Вы скачали Тёмная башня через торрент бесплатно! Внесите свою лепту в развитие PiratBit!
    Комментировать посты могут только пользователи прошедшие не сложную регистрацию
    Показать сообщения:    

    Тёмная башня через торрент
    Скачать бесплатно Тёмная башня
    Тёмная башня скачать торрент
    Тёмная башня смотреть онлайн
    Cкачать фильм Тёмная башня бесплатно
    Тёмная башня скачать торрент в хорошем качестве
    Тёмная башня смотреть онлайн бесплатно в хорошем качестве


    Вы не можете начинать темы
    Вы не можете отвечать на сообщения
    Вы не можете редактировать свои сообщения
    Вы не можете удалять свои сообщения
    Вы не можете голосовать в опросах
    Вы не можете прикреплять файлы к сообщениям
    Вы можете скачивать файлы